<?xml version="1.0" standalone="no"?>
<!DOCTYPE svg PUBLIC "-//W3C//DTD SVG 1.1//EN" "http://www.w3.org/Graphics/SVG/1.1/DTD/svg11.dtd">
<svg version="1.1" xmlns="http://www.w3.org/2000/svg" xmlns:xlink="http://www.w3.org/1999/xlink"><metadata>This SVG WebFont was generated by YouWorkForThem.
</metadata><defs><font horiz-adv-x="900" id="ywftsvg"><font-face ascent="800" bbox="-194 -290 1294 994" cap-height="696" descent="-200" font-family="" font-stretch="normal" font-weight="400" panose-1="0 0 0 0 0 0 0 0 0 0" underline-position="0" underline-thickness="0" unicode-range="U+0020-FB02" units-per-em="1000" x-height="483"/><missing-glyph d="M394 740v-960h-305v960h305zM320 85h-160v-108h160v108zM288 54v-46h-96v46h96zM320 251h-96v-53h32v22h32v-45h-96v76h-32v-108h160v108zM320 368h-32v-63h-128v-33h160v96zM320 426h-160v-32h64v-35h-64v-32h96v67h64v32zM224 519v-34h-32v34h32zM256 552h-96v-100h160 v33h-64v67zM320 676h-159v-32h63v-36h-64v-31h160v31h-64v36h64v32zM320 -45h-160v-32h68l-68 -45v-32h160v32h-98l67 45h31v32z" horiz-adv-x="480"/><glyph d="M127 567q0 90 43.5 137.5t125.5 47.5q39 0 68 -10v-70q-25 10 -52 10q-101 0 -101 -119v-80h286l42 6v-489h-84v415h-244v-415h-84v415h-89v68h89v84zM497 588q-25 0 -40.5 16.5t-15.5 40.5t15.5 40t40.5 16t40.5 -16t15.5 -40t-15.5 -40.5t-40.5 -16.5z" glyph-name="uniFB01" horiz-adv-x="616" unicode="fi"/><glyph d="M127 567q0 90 43.5 137.5t125.5 47.5q38 0 71 -11v-71q-26 12 -55 12q-101 0 -101 -119v-80h244v251l84 12v-597q0 -87 67 -87q19 0 40 8l18 -64q-35 -14 -77 -14q-132 0 -132 159v264h-244v-415h-84v415h-89v68h89v84z" glyph-name="uniFB02" horiz-adv-x="699" unicode="fl"/><glyph d="M127 567q0 90 43.5 137.5t125.5 47.5q38 0 71 -11v-71q-26 12 -55 12q-101 0 -101 -119v-80h246v84q0 90 44 137.5t125 47.5q53 0 93 -21l-22 -64q-25 15 -58 15q-98 0 -98 -119v-80h143l-10 -68h-133v-415h-84v415h-246v-415h-84v415h-89v68h89v84z" glyph-name="f_f.liga" horiz-adv-x="719" unicode="ff"/><glyph d="M127 567q0 90 43.5 137.5t125.5 47.5q38 0 71 -11v-71q-26 12 -55 12q-101 0 -101 -119v-80h243v84q0 90 43.5 137.5t125.5 47.5q39 0 68 -10v-70q-25 10 -52 10q-101 0 -101 -119v-80h286l42 6v-489h-84v415h-244v-415h-84v415h-243v-415h-84v415h-89v68h89v84zM824 588 q-25 0 -40.5 16.5t-15.5 40.5t15.5 40t40.5 16t40.5 -16t15.5 -40t-15.5 -40.5t-40.5 -16.5z" glyph-name="f_f_i.liga" horiz-adv-x="943" unicode="ffi"/><glyph d="M127 567q0 90 43.5 137.5t125.5 47.5q38 0 71 -11v-71q-26 12 -55 12q-101 0 -101 -119v-80h244v84q0 90 43.5 137.5t125.5 47.5q38 0 71 -11v-71q-26 12 -55 12q-101 0 -101 -119v-80h243v251l84 12v-597q0 -87 67 -87q19 0 40 8l18 -64q-35 -14 -77 -14 q-132 0 -132 159v264h-243v-415h-84v415h-244v-415h-84v415h-89v68h89v84z" glyph-name="f_f_l.liga" horiz-adv-x="1026" unicode="ffl"/><glyph d="M394 740v-960h-305v960h305zM320 85h-160v-108h160v108zM288 54v-46h-96v46h96zM320 251h-96v-53h32v22h32v-45h-96v76h-32v-108h160v108zM320 368h-32v-63h-128v-33h160v96zM320 426h-160v-32h64v-35h-64v-32h96v67h64v32zM224 519v-34h-32v34h32zM256 552h-96v-100h160 v33h-64v67zM320 676h-159v-32h63v-36h-64v-31h160v31h-64v36h64v32zM320 -45h-160v-32h68l-68 -45v-32h160v32h-98l67 45h31v32z" glyph-name=".notdef" horiz-adv-x="480"/><glyph glyph-name="glyph1" horiz-adv-x="0"/><glyph glyph-name="glyph2" horiz-adv-x="333"/><glyph glyph-name="space" horiz-adv-x="232" unicode=" "/><glyph glyph-name="space" horiz-adv-x="232" unicode=" "/><glyph d="M94 177l-8 507l84 12l-8 -519h-68zM127 -8q-26 0 -42 16.5t-16 40.5q0 25 16 41.5t42 16.5q25 0 41 -17t16 -41t-16 -40.5t-41 -16.5z" glyph-name="exclam" horiz-adv-x="253" unicode="!"/><glyph d="M81 422l-8 268h84l-9 -268h-67zM256 422l-8 268h84l-9 -268h-67z" glyph-name="quotedbl" horiz-adv-x="405" unicode="&quot;"/><glyph d="M339 0l37 200h-184l-37 -200h-69l37 200h-98l9 63h100l31 168h-108l10 63h109l36 196h69l-36 -196h184l36 196h69l-36 -196h97l-9 -63h-99l-31 -168h107l-10 -63h-108l-37 -200h-69zM203 263h184l31 168h-184z" glyph-name="numbersign" horiz-adv-x="620" unicode="#"/><glyph d="M298 -124v126q-137 5 -236 106l39 47q90 -86 197 -90v269l-25 6q-162 40 -162 170q0 78 52 122.5t135 53.5v114l58 7v-119q111 -5 193 -66l-35 -51q-68 49 -158 55v-235l15 -4q80 -21 127 -61t47 -120q0 -83 -52 -136t-137 -65v-129h-58zM190 514q0 -43 26.5 -67.5 t81.5 -40.5v217q-50 -8 -79 -35.5t-29 -73.5zM356 70q52 12 81 47t29 83q0 49 -29 76t-81 43v-249z" glyph-name="dollar" horiz-adv-x="620" unicode="$"/><glyph d="M190 284q-81 0 -122.5 60.5t-41.5 148.5t41.5 148.5t122.5 60.5t122.5 -60.5t41.5 -148.5t-41.5 -148.5t-122.5 -60.5zM190 341q49 0 72.5 43t23.5 109t-23.5 109t-72.5 43t-72.5 -43t-23.5 -109t23.5 -109t72.5 -43zM279 -10l-83 11l405 690l83 -11zM694 -9 q-81 0 -122.5 60.5t-41.5 148.5t41.5 148.5t122.5 60.5t122.5 -60.5t41.5 -148.5t-41.5 -148.5t-122.5 -60.5zM694 48q49 0 72.5 43t23.5 109t-23.5 109t-72.5 43t-72.5 -43t-23.5 -109t23.5 -109t72.5 -43z" glyph-name="percent" horiz-adv-x="884" unicode="%"/><glyph d="M260 -12q-96 0 -157 52t-61 138q0 73 43 119.5t112 65.5q-100 42 -100 153q0 90 64 138t166 48q76 0 155 -32l-25 -66q-64 27 -121 27q-68 0 -110.5 -32.5t-42.5 -93.5q0 -58 41.5 -87t111.5 -29h110v84l84 10v-94h115l-5 -68h-110v-160q0 -54 28.5 -79.5t72.5 -25.5 q34 0 60 13l16 -60q-42 -21 -96 -21q-119 0 -153 93q-65 -93 -198 -93zM127 186q0 -57 41 -93.5t109 -36.5q75 0 122 46.5t47 129.5v89h-154q-70 0 -117.5 -37t-47.5 -98z" glyph-name="ampersand" horiz-adv-x="742" unicode="&amp;"/><glyph d="M81 422l-8 268h84l-9 -268h-67z" glyph-name="quotesingle" horiz-adv-x="230" unicode="'"/><glyph d="M199 -224q-75 110 -113 237.5t-38 244.5t38 244.5t113 237.5h90q-157 -232 -157 -482t157 -482h-90z" glyph-name="parenleft" horiz-adv-x="323" unicode="("/><glyph d="M124 740q75 -110 113 -237.5t38 -244.5t-38 -244.5t-113 -237.5h-90q157 232 157 482t-157 482h90z" glyph-name="parenright" horiz-adv-x="323" unicode=")"/><glyph d="M38 576l20 60l147 -48v152h62v-152l147 48l20 -60l-146 -47l94 -129l-50 -37l-96 132l-96 -132l-50 37l93 129z" glyph-name="asterisk" horiz-adv-x="472" unicode="*"/><glyph d="M273 97v218h-213v63h213v219h74v-219h213v-63h-213v-218h-74z" glyph-name="plus" horiz-adv-x="620" unicode="+"/><glyph d="M72 -89q57 33 60 88l-56 16q-6 16 -6 32q0 27 16.5 43.5t40.5 16.5q29 0 47 -23.5t18 -65.5q0 -45 -25.5 -84t-71.5 -62z" glyph-name="comma" horiz-adv-x="261" unicode=","/><glyph d="M77 226v68h329l-9 -68h-320z" glyph-name="hyphen" horiz-adv-x="482" unicode="-"/><glyph d="M127 -8q-26 0 -42 16.5t-16 40.5q0 25 16 41.5t42 16.5q25 0 41 -17t16 -41t-16 -40.5t-41 -16.5z" glyph-name="period" horiz-adv-x="253" unicode="."/><glyph d="M7 -224l218 964h84l-218 -964h-84z" glyph-name="slash" horiz-adv-x="356" unicode="/"/><glyph d="M310 -8q-69 0 -122 29t-84.5 79t-47 112t-15.5 133t15.5 133t47 112t84.5 79t122 29t122 -29t84.5 -79t47 -112t15.5 -133t-15.5 -133t-47 -112t-84.5 -79t-122 -29zM310 62q93 0 138 80.5t45 202.5t-45 202.5t-138 80.5t-138 -80.5t-45 -202.5t45 -202.5t138 -80.5z" glyph-name="zero" horiz-adv-x="620" unicode="0"/><glyph d="M95 479l-33 62l245 149h68v-622h184l-9 -68h-456v68h197v530z" glyph-name="one" horiz-adv-x="620" unicode="1"/><glyph d="M80 0v68l204 165q88 71 128.5 128.5t40.5 119.5q0 71 -50.5 111t-134.5 40q-85 0 -166 -53l-37 59q102 64 217 64q117 0 187 -54.5t70 -155.5q0 -82 -44 -152.5t-137 -142.5l-165 -129h357l-7 -68h-463z" glyph-name="two" horiz-adv-x="620" unicode="2"/><glyph d="M277 58q83 0 133 37t50 103q0 122 -174 122h-93l9 70h87q69 0 111 34.5t42 91.5q0 58 -46 87t-118 29q-84 0 -155 -42l-35 61q90 51 197 51q108 0 175 -46t67 -132q0 -69 -39.5 -111.5t-95.5 -56.5q26 -3 50 -12.5t49 -27t40 -50t15 -75.5q0 -96 -70 -149.5t-193 -53.5 t-217 62l37 60q80 -52 174 -52z" glyph-name="three" horiz-adv-x="620" unicode="3"/><glyph d="M54 163l-6 5l183 529l77 -14l-157 -452h218v175l80 13v-188h124l-10 -68h-114v-163h-80v163h-315z" glyph-name="four" horiz-adv-x="620" unicode="4"/><glyph d="M279 58q80 0 129.5 43t49.5 114q0 70 -52 106.5t-133 36.5q-89 0 -162 -38l-6 4l38 366h373l-8 -68h-305l-22 -212q54 19 116 19q113 0 180 -53.5t67 -155.5q0 -105 -70 -168.5t-191 -63.5t-215 62l37 61q83 -53 174 -53z" glyph-name="five" horiz-adv-x="620" unicode="5"/><glyph d="M324 -12q-129 0 -195 89t-66 234q0 176 80.5 283.5t231.5 107.5q96 0 164 -43l-31 -59q-61 32 -132 32q-82 0 -136 -46.5t-74 -116.5t-17 -158q23 56 73 88t118 32q94 0 157.5 -60t63.5 -156q0 -99 -66 -163t-171 -64zM319 57q69 0 113.5 43t44.5 111q0 67 -43.5 109 t-111.5 42t-113.5 -42t-45.5 -109t44.5 -110.5t111.5 -43.5z" glyph-name="six" horiz-adv-x="620" unicode="6"/><glyph d="M249 -6l-86 12l278 615h-376v69h486l6 -5z" glyph-name="seven" horiz-adv-x="620" unicode="7"/><glyph d="M310 -12q-108 0 -178.5 52.5t-70.5 145.5q0 65 38.5 110t103.5 64q-55 22 -86.5 64.5t-31.5 96.5q0 79 63.5 130t161.5 51t161.5 -51t63.5 -130q0 -54 -31.5 -96.5t-86.5 -64.5q65 -19 103.5 -64t38.5 -110q0 -93 -70.5 -145.5t-178.5 -52.5zM310 57q72 0 118 35.5 t46 97.5q0 61 -46 96.5t-118 35.5t-118 -35.5t-46 -96.5q0 -62 46 -97.5t118 -35.5zM310 393q63 0 104 34t41 86q0 51 -41 85.5t-104 34.5t-104 -34.5t-41 -85.5q0 -52 41 -86t104 -34z" glyph-name="eight" horiz-adv-x="620" unicode="8"/><glyph d="M296 702q129 0 195 -89t66 -234q0 -176 -80.5 -283.5t-231.5 -107.5q-96 0 -164 43l31 59q61 -32 132 -32q82 0 136 46.5t74 116.5t17 158q-23 -56 -73 -88t-118 -32q-94 0 -157.5 60t-63.5 156q0 99 66 163t171 64zM301 633q-69 0 -113.5 -43t-44.5 -111 q0 -67 43.5 -109t111.5 -42t113.5 42t45.5 109t-44.5 110.5t-111.5 43.5z" glyph-name="nine" horiz-adv-x="620" unicode="9"/><glyph d="M127 -8q-26 0 -42 16.5t-16 40.5q0 25 16 41.5t42 16.5q25 0 41 -17t16 -41t-16 -40.5t-41 -16.5zM127 381q-26 0 -42 16.5t-16 40.5q0 25 16 41.5t42 16.5q25 0 41 -17t16 -41t-16 -40.5t-41 -16.5z" glyph-name="colon" horiz-adv-x="253" unicode=":"/><glyph d="M72 -89q57 33 60 88l-56 16q-6 16 -6 32q0 27 16.5 43.5t40.5 16.5q29 0 47 -23.5t18 -65.5q0 -45 -25.5 -84t-71.5 -62zM127 380q-26 0 -42 16.5t-16 40.5q0 25 16 41.5t42 16.5q25 0 41 -17t16 -41t-16 -40.5t-41 -16.5z" glyph-name="semicolon" horiz-adv-x="261" unicode=";"/><glyph d="M560 97l-500 218v63l500 219v-69l-416 -181l416 -182v-68z" glyph-name="less" horiz-adv-x="620" unicode="&lt;"/><glyph d="M60 434v63h500v-63h-500zM60 197v63h500v-63h-500z" glyph-name="equal" horiz-adv-x="620" unicode="="/><glyph d="M60 97v68l416 182l-416 181v69l500 -219v-63z" glyph-name="greater" horiz-adv-x="620" unicode=">"/><glyph d="M184 383q153 21 153 131q0 56 -38 87t-98 31q-71 0 -137 -43l-30 59q82 54 180 54q90 0 148.5 -45t58.5 -134q0 -143 -169 -192v-154h-68v206zM218 -8q-26 0 -42 16.5t-16 40.5q0 25 16 41.5t42 16.5t41.5 -16.5t15.5 -41.5t-15.5 -41t-41.5 -16z" glyph-name="question" horiz-adv-x="463" unicode="?"/><glyph d="M540 -236q-215 0 -355.5 141t-140.5 353t140.5 353t355.5 141q141 0 255.5 -63.5t177.5 -169.5t63 -231q0 -75 -22 -137.5t-70.5 -102.5t-115.5 -40q-59 0 -102 31t-58 88q-55 -119 -183 -119q-97 0 -158 69t-61 181t61 181t158 69q134 0 187 -127l4 114h69v-304 q0 -54 26 -85t72 -31q64 0 99.5 58.5t35.5 148.5q0 112 -53.5 207.5t-155 154.5t-229.5 59q-194 0 -315.5 -128t-121.5 -317t121.5 -317t315.5 -128q133 0 251 50l18 -45q-129 -54 -269 -54zM504 75q70 0 113.5 50t43.5 133t-43.5 133t-113.5 50q-69 0 -112.5 -50 t-43.5 -133t43.5 -133t112.5 -50z" glyph-name="at" horiz-adv-x="1079" unicode="@"/><glyph d="M137 -7l-87 14l284 683h68l282 -683l-83 -14l-76 186h-312zM240 247h257l-129 313z" glyph-name="A" horiz-adv-x="734" unicode="A"/><glyph d="M292 -12q-83 0 -200 17v2v677v1q100 17 180 17q126 0 193 -45t67 -135q0 -118 -117 -160q149 -29 149 -171q0 -96 -68.5 -149.5t-203.5 -53.5zM173 59q74 -7 128 -7q92 0 136 38t44 103q0 63 -41.5 97.5t-125.5 34.5h-141v-266zM173 389h108q82 0 125 32.5t43 93.5 q0 123 -169 123q-33 0 -107 -6v-243z" glyph-name="B" horiz-adv-x="625" unicode="B"/><glyph d="M405 -12q-152 0 -246.5 99t-94.5 258t94.5 258t246.5 99q115 0 205 -56l-31 -65q-78 50 -168 50q-115 0 -187.5 -80t-72.5 -206t72.5 -206t187.5 -80q90 0 168 50l31 -65q-90 -56 -205 -56z" glyph-name="C" horiz-adv-x="672" unicode="C"/><glyph d="M279 -12q-94 0 -187 17v680q93 17 187 17q188 0 288.5 -99t100.5 -258t-100.5 -258t-288.5 -99zM180 64q54 -6 104 -6q146 0 221.5 79.5t75.5 207.5t-75.5 207.5t-221.5 79.5q-50 0 -104 -6v-562z" glyph-name="D" horiz-adv-x="732" unicode="D"/><glyph d="M92 0v690h422l-9 -71h-325v-233h285v-72h-285v-243h337l-9 -71h-416z" glyph-name="E" horiz-adv-x="571" unicode="E"/><glyph d="M92 0v690h410l-10 -72h-312v-243h273v-72h-273v-303h-88z" glyph-name="F" horiz-adv-x="548" unicode="F"/><glyph d="M405 -9q-152 0 -246.5 98t-94.5 256t97 257.5t256 99.5q123 0 215 -57l-31 -63q-83 50 -178 50q-122 0 -197.5 -80t-75.5 -207t71.5 -205t187.5 -78q86 0 155 41v181h-202l9 68h276v-290q-108 -71 -242 -71z" glyph-name="G" horiz-adv-x="716" unicode="G"/><glyph d="M527 0v314h-347v-314h-88v683l88 14v-311h347v297l88 14v-697h-88z" glyph-name="H" horiz-adv-x="706" unicode="H"/><glyph d="M92 0v684l84 12v-696h-84z" glyph-name="I" horiz-adv-x="268" unicode="I"/><glyph d="M200 -12q-86 0 -158 40l29 65q60 -33 118 -33q139 0 139 156v468l88 12v-480q0 -113 -57 -170.5t-159 -57.5z" glyph-name="J" horiz-adv-x="502" unicode="J"/><glyph d="M92 0v684l88 12v-344q290 12 301 332l84 12q0 -238 -155 -346l204 -344l-88 -12l-188 318q-66 -26 -158 -31v-281h-88z" glyph-name="K" horiz-adv-x="671" unicode="K"/><glyph d="M92 0v683l88 14v-626h316l-10 -71h-394z" glyph-name="L" horiz-adv-x="524" unicode="L"/><glyph d="M60 0l96 690h64l226 -577l227 577h63l97 -690h-80l-70 523l-205 -523h-64l-205 523l-70 -523h-79z" glyph-name="M" horiz-adv-x="893" unicode="M"/><glyph d="M92 0v690h69l372 -544v537l78 14v-697h-69l-373 546v-546h-77z" glyph-name="N" horiz-adv-x="703" unicode="N"/><glyph d="M395 -12q-145 0 -238 100.5t-93 256.5t93 256.5t238 100.5t238 -100.5t93 -256.5t-93 -256.5t-238 -100.5zM395 59q111 0 177.5 80.5t66.5 205.5t-66.5 205.5t-177.5 80.5t-177.5 -80.5t-66.5 -205.5t66.5 -205.5t177.5 -80.5z" glyph-name="O" horiz-adv-x="790" unicode="O"/><glyph d="M274 246q-47 0 -95 6v-252h-87v685q98 17 182 17q145 0 218 -62t73 -166t-73 -166t-218 -62zM179 320q70 -6 100 -6q96 0 147 43t51 117t-51 117t-147 43q-30 0 -100 -6v-308z" glyph-name="P" horiz-adv-x="607" unicode="P"/><glyph d="M610 -231q-72 0 -118 39.5t-87 112.5l-38 68q-135 11 -219 109.5t-84 246.5q0 156 93 256.5t238 100.5t238 -100.5t93 -256.5q0 -137 -73 -233t-193 -118l21 -39q31 -56 64.5 -86t79.5 -30q24 0 45 8l8 -67q-35 -11 -68 -11zM395 58q111 0 178 81t67 206t-67 206t-178 81 t-178 -81t-67 -206t67 -206t178 -81z" glyph-name="Q" horiz-adv-x="790" unicode="Q"/><glyph d="M274 266q-48 0 -98 6v-272h-84v685q98 17 182 17q146 0 218.5 -57.5t72.5 -160.5q0 -159 -163 -203l64 -107q35 -58 66.5 -87t77.5 -29q23 0 45 8l7 -67q-33 -11 -68 -11q-71 0 -117.5 40t-87.5 112l-72 127zM176 340q72 -6 103 -6q97 0 147.5 38.5t50.5 111.5 t-50.5 111.5t-147.5 38.5q-31 0 -103 -6v-288z" glyph-name="R" horiz-adv-x="709" unicode="R"/><glyph d="M307 -12q-148 0 -257 109l42 51q97 -93 211 -93q74 0 117 37t43 99q0 55 -33.5 82.5t-93.5 43.5l-70 18q-166 43 -166 182q0 92 65 138.5t167 46.5q128 0 218 -68l-37 -55q-79 56 -178 56q-69 0 -110 -28t-41 -84q0 -47 29 -72t91 -42l69 -17q78 -20 126 -63.5t48 -128.5 q0 -100 -67.5 -156t-172.5 -56z" glyph-name="S" horiz-adv-x="615" unicode="S"/><glyph d="M279 0v619h-228v71h549l-10 -71h-223v-619h-88z" glyph-name="T" horiz-adv-x="644" unicode="T"/><glyph d="M344 -12q-119 0 -190 68t-71 193v434l88 14v-443q0 -90 47 -141.5t126 -51.5q80 0 127 51.5t47 141.5v429l88 14v-448q0 -125 -71 -193t-191 -68z" glyph-name="U" horiz-adv-x="689" unicode="U"/><glyph d="M347 0l-297 684l87 12l245 -571l245 571l83 -12l-295 -684h-68z" glyph-name="V" horiz-adv-x="760" unicode="V"/><glyph d="M262 0l-211 685l79 13l172 -559l180 551h73l181 -551l172 559l79 -13l-210 -685h-72l-186 562l-185 -562h-72z" glyph-name="W" horiz-adv-x="1038" unicode="W"/><glyph d="M606 0l-222 285l-213 -285h-107l268 352l-258 332l102 12l224 -288l219 288l98 -12l-266 -342l265 -342h-110z" glyph-name="X" horiz-adv-x="785" unicode="X"/><glyph d="M307 0v293l-264 391l91 12l217 -324l217 324l90 -12l-263 -391v-293h-88z" glyph-name="Y" horiz-adv-x="702" unicode="Y"/><glyph d="M56 0v68l406 551h-393v71h494v-68l-407 -551h424l-9 -71h-515z" glyph-name="Z" horiz-adv-x="635" unicode="Z"/><glyph d="M77 -224v964h217l-9 -68h-124v-828h133l-9 -68h-208z" glyph-name="bracketleft" horiz-adv-x="330" unicode="["/><glyph d="M265 -224l-218 964h84l218 -964h-84z" glyph-name="backslash" horiz-adv-x="356" unicode="\"/><glyph d="M253 740v-964h-217l9 68h124v828h-133l9 68h208z" glyph-name="bracketright" horiz-adv-x="330" unicode="]"/><glyph d="M40 424l145 266h69l145 -266l-70 -8l-109 203l-110 -203z" glyph-name="asciicircum" horiz-adv-x="439" unicode="^"/><glyph d="M77 -25v68h411l-11 -68h-400z" glyph-name="underscore" horiz-adv-x="564" unicode="_"/><glyph d="M304 558l-204 112l34 62l199 -121z" glyph-name="grave" horiz-adv-x="433" unicode="`"/><glyph d="M467 -12q-43 0 -71 21.5t-32 64.5q-54 -86 -163 -86q-68 0 -113 37t-45 105q0 73 55 111.5t153 38.5q58 0 115 -17l1 43q1 59 -36 89t-96 30q-71 0 -128 -43l-37 58q68 55 171 55q95 0 150.5 -45t54.5 -135l-2 -196q-2 -57 45 -57q15 0 30 5v-71q-26 -8 -52 -8zM128 136 q0 -39 28.5 -61t69.5 -22q57 0 95.5 42t42.5 115q-51 17 -102 17q-62 0 -98 -23.5t-36 -67.5z" glyph-name="a" horiz-adv-x="557" unicode="a"/><glyph d="M335 -12q-128 0 -184 123l-4 -111h-70v734l84 12v-354q57 103 174 103q97 0 158.5 -69.5t61.5 -183.5t-61.5 -184t-158.5 -70zM316 57q69 0 112 50t43 135q0 84 -43 134t-112 50q-68 0 -111.5 -50t-43.5 -134t43.5 -134.5t111.5 -50.5z" glyph-name="b" horiz-adv-x="608" unicode="b"/><glyph d="M302 -12q-112 0 -180.5 70t-68.5 184q0 113 68.5 183t180.5 70q82 0 146 -39l-30 -63q-52 32 -107 32q-78 0 -125 -52.5t-47 -130.5q0 -79 47 -131.5t125 -52.5q55 0 107 32l30 -63q-64 -39 -146 -39z" glyph-name="c" horiz-adv-x="495" unicode="c"/><glyph d="M273 -12q-97 0 -158.5 70t-61.5 184t61.5 183.5t158.5 69.5q117 0 174 -103v342l84 12v-745h-69l-5 112q-53 -125 -184 -125zM292 57q69 0 112 50t43 135q0 84 -43 134t-112 50t-112 -50t-43 -134q0 -85 43 -135t112 -50z" glyph-name="d" horiz-adv-x="608" unicode="d"/><glyph d="M301 -12q-116 0 -182 70.5t-66 183.5q0 116 63 184.5t165 68.5q98 0 156 -60.5t58 -160.5q0 -32 -6 -54h-352q6 -73 51 -119t122 -46q73 0 136 44l27 -58q-75 -53 -172 -53zM138 280h282q0 64 -36.5 106.5t-100.5 42.5q-59 0 -97.5 -39t-47.5 -110z" glyph-name="e" horiz-adv-x="546" unicode="e"/><glyph d="M127 567q0 90 44 137.5t125 47.5q53 0 93 -21l-22 -64q-25 15 -58 15q-98 0 -98 -119v-80h143l-10 -68h-133v-415h-84v415h-89v68h89v84z" glyph-name="f" horiz-adv-x="389" unicode="f"/><glyph d="M279 -236q-99 0 -199 50l29 64q88 -44 165 -44q86 0 130 48.5t44 136.5v80q-56 -104 -176 -104q-97 0 -158 69t-61 181t61 181t158 69q134 0 187 -127l3 115h70v-467q0 -119 -66.5 -185.5t-186.5 -66.5zM291 62q70 0 113.5 50t43.5 133t-43.5 133t-113.5 50t-113 -50 t-43 -133q0 -84 43 -133.5t113 -49.5z" glyph-name="g" horiz-adv-x="609" unicode="g"/><glyph d="M77 0v734l84 12v-339q51 88 157 88q79 0 126 -50.5t47 -143.5v-301h-84v285q0 67 -28.5 103.5t-82.5 36.5q-61 0 -98 -46t-37 -130v-249h-84z" glyph-name="h" horiz-adv-x="560" unicode="h"/><glyph d="M77 0v477l84 12v-489h-84zM119 588q-25 0 -40.5 16.5t-15.5 40.5t15.5 40t40.5 16t40.5 -16t15.5 -40t-15.5 -40.5t-40.5 -16.5z" glyph-name="i" horiz-adv-x="238" unicode="i"/><glyph d="M28 -213q49 93 49 216v474l84 12v-484q0 -145 -60 -251zM118 588q-25 0 -40.5 16.5t-15.5 40.5t15.5 40t40.5 16t40.5 -16t15.5 -40t-15.5 -40.5t-40.5 -16.5z" glyph-name="j" horiz-adv-x="238" unicode="j"/><glyph d="M77 0v734l84 12v-468q101 5 158 55.5t58 143.5l84 13q3 -158 -122 -235l165 -249l-90 -12l-150 227q-48 -16 -103 -17v-204h-84z" glyph-name="k" horiz-adv-x="547" unicode="k"/><glyph d="M206 -8q-132 0 -132 159v583l84 12v-597q0 -87 67 -87q19 0 40 8l18 -64q-35 -14 -77 -14z" glyph-name="l" horiz-adv-x="318" unicode="l"/><glyph d="M737 285q0 67 -28.5 103.5t-82.5 36.5q-61 0 -98 -46t-37 -130v-249h-84v285q0 67 -28.5 103.5t-82.5 36.5q-61 0 -98 -46t-37 -130v-249h-84v479l69 9v-114q46 121 172 121q59 0 101 -29t60 -83q48 112 169 112q79 0 126 -50.5t47 -143.5v-301h-84v285z" glyph-name="m" horiz-adv-x="890" unicode="m"/><glyph d="M407 285q0 67 -28.5 103.5t-82.5 36.5q-61 0 -98 -46t-37 -130v-249h-84v477l76 12v-98q49 104 165 104q79 0 126 -50.5t47 -143.5v-301h-84v285z" glyph-name="n" horiz-adv-x="560" unicode="n"/><glyph d="M291 -12q-106 0 -172 69.5t-66 184.5q0 114 66 183.5t172 69.5t171.5 -69.5t65.5 -183.5q0 -115 -65.5 -184.5t-171.5 -69.5zM291 58q68 0 110.5 50t42.5 134t-42.5 133.5t-110.5 49.5t-111 -49.5t-43 -133.5t43 -134t111 -50z" glyph-name="o" horiz-adv-x="581" unicode="o"/><glyph d="M336 -12q-118 0 -175 103v-309l-84 -12v707l76 12v-113q54 119 183 119q97 0 158 -69.5t61 -183.5q0 -115 -61 -184.5t-158 -69.5zM317 57q68 0 111 50.5t43 134.5t-43 134t-111 50q-69 0 -112 -50t-43 -134q0 -85 43 -135t112 -50z" glyph-name="p" horiz-adv-x="609" unicode="p"/><glyph d="M273 -12q-97 0 -158.5 70t-61.5 184t61.5 183.5t158.5 69.5q131 0 184 -125l5 113h69v-701l-84 -12v321q-57 -103 -174 -103zM292 57q69 0 112 50t43 135q0 84 -43 134t-112 50t-112 -50t-43 -134q0 -85 43 -135t112 -50z" glyph-name="q" horiz-adv-x="608" unicode="q"/><glyph d="M77 0v479l76 9v-104q36 111 144 111q27 0 59 -9v-81q-33 10 -60 10q-64 0 -99.5 -46t-35.5 -124v-245h-84z" glyph-name="r" horiz-adv-x="396" unicode="r"/><glyph d="M236 -12q-113 0 -196 78l40 52q70 -62 156 -62q47 0 76 22.5t29 59.5q0 33 -21.5 49.5t-61.5 26.5l-47 12q-67 16 -99.5 47t-32.5 83q0 69 49.5 104t128.5 35q97 0 168 -49l-36 -54q-58 37 -132 37q-95 0 -95 -67q0 -50 78 -70l53 -13q60 -13 95.5 -43.5t35.5 -91.5 q0 -74 -53 -115t-135 -41z" glyph-name="s" horiz-adv-x="479" unicode="s"/><glyph d="M272 -12q-68 0 -109.5 37.5t-41.5 123.5v266h-83v68h83v115l84 15v-130h139l-9 -68h-130v-247q0 -110 85 -110q28 0 62 14l19 -63q-48 -21 -99 -21z" glyph-name="t" horiz-adv-x="408" unicode="t"/><glyph d="M248 -12q-80 0 -129.5 49t-49.5 141v301l84 9v-295q0 -65 31 -100t86 -35q61 0 95 44t34 128v249l84 9v-488h-69l-4 89q-45 -101 -162 -101z" glyph-name="u" horiz-adv-x="561" unicode="u"/><glyph d="M255 0l-220 477l86 14l170 -382l170 382l86 -14l-221 -477h-71z" glyph-name="v" horiz-adv-x="583" unicode="v"/><glyph d="M194 0l-157 477l78 13l121 -376l115 369h87l115 -369l122 376l77 -13l-156 -477h-77l-124 383l-124 -383h-77z" glyph-name="w" horiz-adv-x="790" unicode="w"/><glyph d="M431 0l-145 185l-143 -185h-84l185 239l-186 237l91 13l153 -195l152 195l78 -12l-189 -235l189 -242h-101z" glyph-name="x" horiz-adv-x="589" unicode="x"/><glyph d="M256 -237q-101 0 -178 63l30 59q71 -54 142 -54q149 0 149 153v85q-49 -81 -151 -81q-80 0 -129.5 49t-49.5 141v301l84 9v-295q0 -65 31 -100t86 -35q61 0 95 44t34 128v249l84 9v-504q0 -101 -62 -161t-165 -60z" glyph-name="y" horiz-adv-x="561" unicode="y"/><glyph d="M44 0v68l278 347h-266v68h359v-68l-278 -347h295l-10 -68h-378z" glyph-name="z" horiz-adv-x="472" unicode="z"/><glyph d="M271 -224q-94 0 -135.5 49.5t-23.5 144.5l21 92q15 70 -9 107t-90 55v68q66 18 90 55t9 107l-21 92q-18 95 23.5 144.5t135.5 49.5h65l-9 -68h-36q-59 0 -84.5 -31t-11.5 -93l22 -117q15 -70 -14.5 -113.5t-87.5 -58.5v-2q58 -15 87.5 -58.5t14.5 -113.5l-22 -117 q-14 -62 11.5 -93t84.5 -31h45l-9 -68h-56z" glyph-name="braceleft" horiz-adv-x="371" unicode="{"/><glyph d="M77 -224v964h84v-964h-84z" glyph-name="bar" horiz-adv-x="238" unicode="|"/><glyph d="M100 740q94 0 135.5 -49.5t23.5 -144.5l-21 -92q-15 -70 9 -107t90 -55v-68q-66 -18 -90 -55t-9 -107l21 -92q18 -95 -23.5 -144.5t-135.5 -49.5h-65l9 68h36q59 0 84.5 31t11.5 93l-22 117q-15 70 14.5 113.5t87.5 58.5v2q-58 15 -87.5 58.5t-14.5 113.5l22 117 q14 62 -11.5 93t-84.5 31h-45l9 68h56z" glyph-name="braceright" horiz-adv-x="371" unicode="}"/><glyph d="M429 266q-34 0 -68 17.5t-56.5 38t-51 38t-53.5 17.5q-34 0 -54 -28.5t-22 -75.5h-64q0 83 35 130.5t95 47.5q33 0 65.5 -17.5t55 -38t52 -38t55.5 -17.5q35 0 55.5 28.5t22.5 75.5h64q0 -83 -35 -130.5t-96 -47.5z" glyph-name="asciitilde" horiz-adv-x="620" unicode="~"/><glyph d="M159 306l8 -507l-84 -12l8 519h68zM126 491q26 0 42 -16.5t16 -40.5q0 -25 -16 -41.5t-42 -16.5q-25 0 -41 17t-16 41t16 40.5t41 16.5z" glyph-name="exclamdown" horiz-adv-x="253" unicode="¡"/><glyph d="M311 0v96q-89 16 -142.5 83.5t-53.5 165.5t53.5 165.5t142.5 83.5v90l83 12v-98q66 -7 116 -38l-30 -63q-51 31 -106 31q-79 0 -126 -52t-47 -131t47 -131t126 -52q55 0 106 31l30 -63q-50 -31 -116 -38v-92h-83z" glyph-name="cent" horiz-adv-x="620" unicode="¢"/><glyph d="M73 68q121 84 121 205q0 19 -3 35h-118v65h100q-3 6 -11 24.5t-11 27t-8 24t-7 29.5t-2 30q0 85 63.5 139.5t169.5 54.5q97 0 170 -45l-28 -62q-65 37 -135 37q-74 0 -115 -37t-41 -98q0 -17 4 -35t8 -28t13.5 -32t12.5 -29h210l-9 -65h-182q3 -16 3 -36 q0 -68 -35 -121.5t-77 -82.5h387l-10 -68h-470v68z" glyph-name="sterling" horiz-adv-x="620" unicode="£"/><glyph d="M310 157q-66 0 -114 34l-84 -84l-40 40l84 84q-33 49 -33 114t33 114l-84 84l40 40l84 -84q48 34 114 34q68 0 114 -34l84 84l40 -40l-84 -84q33 -49 33 -114t-33 -114l84 -84l-40 -40l-84 84q-48 -34 -114 -34zM310 208q60 0 97 38.5t37 98.5t-37 98.5t-97 38.5 q-59 0 -96.5 -38.5t-37.5 -98.5t37.5 -98.5t96.5 -38.5z" glyph-name="currency" horiz-adv-x="620" unicode="¤"/><glyph d="M269 0v130h-198v66h198v93h-198v65h161l-207 329l85 14l202 -327l201 327l85 -14l-207 -329h166l-9 -65h-195v-93h204l-9 -66h-195v-130h-84z" glyph-name="yen" horiz-adv-x="620" unicode="¥"/><glyph d="M77 -224v421h84v-421h-84zM77 319v421h84v-421h-84z" glyph-name="brokenbar" horiz-adv-x="238" unicode="¦"/><glyph d="M296 -236q-153 0 -263 103l39 46q101 -89 220 -89q79 0 126 37.5t47 95.5q0 28 -11 49t-31.5 34.5t-42.5 22t-53 15.5l-71 17q-82 19 -126.5 58t-44.5 108q0 90 82 133q-82 45 -82 134q0 85 67.5 129.5t170.5 44.5q129 0 221 -65l-35 -50q-80 55 -185 55q-73 0 -118 -28 t-45 -81q0 -45 32 -70t98 -40l67 -16q40 -9 69.5 -20.5t57 -31.5t42.5 -51t15 -73q0 -86 -70 -134q70 -47 70 -133q0 -93 -69 -146.5t-177 -53.5zM161 265q0 -44 32 -69t98 -41l67 -15q34 -8 51 -14q56 36 56 98q0 53 -36.5 80t-101.5 42l-71 16l-12 3q-83 -26 -83 -100z " glyph-name="section" horiz-adv-x="594" unicode="§"/><glyph d="M149 592q-21 0 -35 14t-14 35t14 35t35 14t35 -14t14 -35t-14 -35t-35 -14zM335 592q-21 0 -35 14t-14 35t14 35t35 14q22 0 35.5 -14t13.5 -35t-13.5 -35t-35.5 -14z" glyph-name="dieresis" horiz-adv-x="484" unicode="¨"/><glyph d="M419 -12q-153 0 -254.5 104.5t-101.5 252.5t101.5 252.5t254.5 104.5t254.5 -104.5t101.5 -252.5t-101.5 -252.5t-254.5 -104.5zM419 13q141 0 234 98t93 234t-93 234t-234 98t-234 -98t-93 -234t93 -234t234 -98zM429 138q-91 0 -148 57t-57 150t57 150t148 57 q69 0 120 -32l-24 -51q-43 27 -91 27q-62 0 -101 -41.5t-39 -109.5t39 -109t101 -41q49 0 91 26l24 -51q-51 -32 -120 -32z" glyph-name="copyright" horiz-adv-x="838" unicode="©"/><glyph d="M277 465q-24 0 -43 11.5t-23 34.5q-31 -46 -94 -46q-41 0 -67 21.5t-26 59.5q0 84 124 84q37 0 65 -9l1 20q0 30 -20 45.5t-54 15.5q-39 0 -73 -23l-24 43q39 30 101 30q56 0 93 -26t33 -84l-1 -96q-2 -27 22 -27q11 0 18 3v-51q-18 -6 -32 -6zM86 551q0 -21 15 -31.5 t37 -10.5q30 0 50 21t22 58q-29 8 -52 8q-33 0 -52.5 -12t-19.5 -33z" glyph-name="ordfeminine" horiz-adv-x="324" unicode="ª"/><glyph d="M210 87l-148 173l148 173l50 -42l-112 -131l112 -131zM396 87l-148 173l148 173l50 -42l-112 -131l112 -131z" glyph-name="guillemotleft" horiz-adv-x="514" unicode="«"/><glyph d="M486 197v237h-426v63h500v-300h-74z" glyph-name="logicalnot" horiz-adv-x="620" unicode="¬"/><glyph d="M331 263q-118 0 -199.5 79t-81.5 202q0 122 81.5 201.5t199.5 79.5q117 0 199 -79.5t82 -201.5t-81.5 -201.5t-199.5 -79.5zM331 289q105 0 178 72t73 183t-73 183t-178 72q-106 0 -179 -72t-73 -183t73 -183t179 -72zM311 486l-34 1v-101h-64v315q52 8 98 8 q77 0 114 -31t37 -81q0 -74 -74 -100l19 -28q27 -38 60 -38q12 0 18 3l5 -51q-16 -6 -37 -6q-64 0 -105 67l-26 42h-11zM277 540l37 -1q86 0 86 58t-86 58l-37 -1v-114z" glyph-name="registered" horiz-adv-x="661" unicode="®"/><glyph d="M100 602v64h275l-9 -64h-266z" glyph-name="macron" horiz-adv-x="475" unicode="¯"/><glyph d="M205 410q-63 0 -106 41.5t-43 104.5q0 64 42.5 105t106.5 41t106.5 -41t42.5 -105q0 -63 -42.5 -104.5t-106.5 -41.5zM205 463q40 0 66 25.5t26 67.5q0 43 -26 68t-66 25t-66 -25t-26 -68q0 -42 26 -67.5t66 -25.5z" glyph-name="degree" horiz-adv-x="410" unicode="°"/><glyph d="M60 372v63h213v162h74v-162h213v-63h-213v-161h-74v161h-213zM60 97v63h500v-63h-500z" glyph-name="plusminus" horiz-adv-x="620" unicode="±"/><glyph d="M48 418v57l120 88q94 68 94 128q0 37 -28.5 58.5t-73.5 21.5q-48 0 -96 -30l-30 46q66 42 137 42q72 0 115.5 -34t43.5 -95q0 -86 -109 -166l-77 -59h192l-6 -57h-282z" glyph-name="uni00B2" horiz-adv-x="380" unicode="²"/><glyph d="M171 410q-76 0 -138 38l32 51q45 -30 101 -30q44 0 70.5 17t26.5 50q0 58 -92 58h-60l7 57h55q37 0 58.5 16.5t21.5 42.5q0 30 -24.5 44t-63.5 14q-48 0 -91 -24l-28 51q59 32 126 32q68 0 110.5 -28.5t42.5 -80.5q0 -37 -22 -61.5t-55 -33.5q35 -6 60.5 -28t25.5 -66 q0 -56 -43 -87.5t-120 -31.5z" glyph-name="uni00B3" horiz-adv-x="380" unicode="³"/><glyph d="M129 558l-29 53l199 121l34 -62z" glyph-name="acute" horiz-adv-x="433" unicode="´"/><glyph d="M277 247q-112 0 -174 61t-62 160q0 100 62 161t174 61h120v-797l-69 -10v364h-51zM499 -93v783h70v-773z" glyph-name="paragraph" horiz-adv-x="645" unicode="¶"/><glyph d="M127 288q-26 0 -42 16.5t-16 40.5q0 25 16 41.5t42 16.5q25 0 41 -17t16 -41t-16 -40.5t-41 -16.5z" glyph-name="periodcentered" horiz-adv-x="253" unicode="·"/><glyph d="M176 -224q-40 0 -76 15l12 42q33 -11 58 -11q27 0 45.5 12t18.5 34q0 45 -93 44l28 102l39 -7l-17 -62q99 -4 99 -79q0 -40 -30.5 -65t-83.5 -25z" glyph-name="cedilla" horiz-adv-x="390" unicode="¸"/><glyph d="M65 684l-27 51l148 83h56v-343h103l-7 -57h-276v57h112v272z" glyph-name="uni00B9" horiz-adv-x="380" unicode="¹"/><glyph d="M170 465q-64 0 -103.5 40t-39.5 104t39.5 103.5t103.5 39.5q63 0 102.5 -39.5t39.5 -103.5t-39.5 -104t-102.5 -40zM170 519q35 0 56.5 24t21.5 66q0 41 -22 65.5t-56 24.5q-35 0 -57.5 -24t-22.5 -66q0 -41 22 -65.5t58 -24.5z" glyph-name="ordmasculine" horiz-adv-x="339" unicode="º"/><glyph d="M304 87l-50 42l112 131l-112 131l50 42l148 -173zM118 87l-50 42l112 131l-112 131l50 42l148 -173z" glyph-name="guillemotright" horiz-adv-x="514" unicode="»"/><glyph d="M206 290v329l-109 -63l-26 51l147 83h56v-400h-68zM271 -10l-83 11l405 690l83 -11zM510 88l-4 5l104 312l69 -10l-86 -250h102v93l69 11v-104h64l-7 -57h-57v-88h-69v88h-185z" glyph-name="onequarter" horiz-adv-x="856" unicode="¼"/><glyph d="M206 290v329l-109 -63l-26 51l147 83h56v-400h-68zM271 -10l-83 11l405 690l83 -11zM566 0v57l120 88q94 68 94 128q0 37 -28.5 58.5t-73.5 21.5q-48 0 -96 -30l-30 46q66 42 137 42q72 0 115.5 -34t43.5 -95q0 -86 -109 -166l-77 -59h192l-6 -57h-282z" glyph-name="onehalf" horiz-adv-x="898" unicode="½"/><glyph d="M171 282q-76 0 -138 38l32 51q45 -30 101 -30q44 0 70.5 17t26.5 50q0 58 -92 58h-60l7 57h55q37 0 58.5 16.5t21.5 42.5q0 30 -24.5 44t-63.5 14q-48 0 -91 -24l-28 51q59 32 126 32q68 0 110.5 -28.5t42.5 -80.5q0 -37 -22 -61.5t-55 -33.5q35 -6 60.5 -28t25.5 -66 q0 -56 -43 -87.5t-120 -31.5zM281 -10l-83 11l405 690l83 -11zM520 88l-4 5l104 312l69 -10l-86 -250h102v93l69 11v-104h64l-7 -57h-57v-88h-69v88h-185z" glyph-name="threequarters" horiz-adv-x="866" unicode="¾"/><glyph d="M279 100q-153 -21 -153 -131q0 -56 38 -87t98 -31q71 0 137 43l30 -59q-82 -54 -180 -54q-90 0 -148.5 45t-58.5 134q0 143 169 192v154h68v-206zM245 491q26 0 42 -16.5t16 -40.5q0 -25 -16 -41.5t-42 -16.5t-41.5 16.5t-15.5 41.5t15.5 41t41.5 16z" glyph-name="questiondown" horiz-adv-x="463" unicode="¿"/><glyph d="M137 -7l-87 14l284 683h68l282 -683l-83 -14l-76 186h-312zM436 765l-204 112l34 62l199 -121zM240 247h257l-129 313z" glyph-name="Agrave" horiz-adv-x="734" unicode="À"/><glyph d="M137 -7l-87 14l284 683h68l282 -683l-83 -14l-76 186h-312zM268 765l-29 53l199 121l34 -62zM240 247h257l-129 313z" glyph-name="Aacute" horiz-adv-x="734" unicode="Á"/><glyph d="M137 -7l-87 14l284 683h68l282 -683l-83 -14l-76 186h-312zM252 766l-37 42l146 136l146 -136l-37 -42l-109 91zM240 247h257l-129 313z" glyph-name="Acircumflex" horiz-adv-x="734" unicode="Â"/><glyph d="M137 -7l-87 14l284 683h68l282 -683l-83 -14l-76 186h-312zM424 802q-32 0 -66.5 30t-53.5 30q-38 0 -45 -56l-55 5q11 114 93 114q32 0 66.5 -30t53.5 -30q38 0 46 56l54 -5q-11 -114 -93 -114zM240 247h257l-129 313z" glyph-name="Atilde" horiz-adv-x="734" unicode="Ã"/><glyph d="M137 -7l-87 14l284 683h68l282 -683l-83 -14l-76 186h-312zM268 799q-21 0 -35 14t-14 35t14 35t35 14t35 -14t14 -35t-14 -35t-35 -14zM454 799q-21 0 -35 14t-14 35t14 35t35 14q22 0 35.5 -14t13.5 -35t-13.5 -35t-35.5 -14zM240 247h257l-129 313z" glyph-name="Adieresis" horiz-adv-x="734" unicode="Ä"/><glyph d="M137 -7l-87 14l284 683h68l282 -683l-83 -14l-76 186h-312zM361 754q-43 0 -72 28t-29 70q0 41 29 69t72 28q44 0 72.5 -27.5t28.5 -69.5t-28.5 -70t-72.5 -28zM361 796q24 0 39.5 15.5t15.5 40.5q0 24 -15.5 39.5t-39.5 15.5t-39 -15.5t-15 -39.5q0 -25 15 -40.5 t39 -15.5zM240 247h257l-129 313z" glyph-name="Aring" horiz-adv-x="734" unicode="Å"/><glyph d="M123 -6l-80 12l368 684h524l-10 -71h-292v-233h252v-72h-252v-243h305l-10 -71h-383v199h-311zM271 267h274v355h-82z" glyph-name="AE" horiz-adv-x="991" unicode="Æ"/><glyph d="M383 -224q-40 0 -76 15l12 42q33 -11 58 -11q27 0 45.5 12t18.5 34q0 45 -93 44l21 78q-137 12 -221 109.5t-84 245.5q0 159 94.5 258t246.5 99q115 0 205 -56l-31 -65q-78 50 -168 50q-115 0 -187.5 -80t-72.5 -206t72.5 -206t187.5 -80q90 0 168 50l31 -65 q-89 -55 -200 -56l-12 -43q99 -4 99 -79q0 -40 -30.5 -65t-83.5 -25z" glyph-name="Ccedilla" horiz-adv-x="672" unicode="Ç"/><glyph d="M92 0v690h422l-9 -71h-325v-233h285v-72h-285v-243h337l-9 -71h-416zM386 765l-204 112l34 62l199 -121z" glyph-name="Egrave" horiz-adv-x="571" unicode="È"/><glyph d="M92 0v690h422l-9 -71h-325v-233h285v-72h-285v-243h337l-9 -71h-416zM217 765l-29 53l199 121l34 -62z" glyph-name="Eacute" horiz-adv-x="571" unicode="É"/><glyph d="M92 0v690h422l-9 -71h-325v-233h285v-72h-285v-243h337l-9 -71h-416zM201 766l-37 42l146 136l146 -136l-37 -42l-109 91z" glyph-name="Ecircumflex" horiz-adv-x="571" unicode="Ê"/><glyph d="M92 0v690h422l-9 -71h-325v-233h285v-72h-285v-243h337l-9 -71h-416zM217 799q-21 0 -35 14t-14 35t14 35t35 14t35 -14t14 -35t-14 -35t-35 -14zM403 799q-21 0 -35 14t-14 35t14 35t35 14q22 0 35.5 -14t13.5 -35t-13.5 -35t-35.5 -14z" glyph-name="Edieresis" horiz-adv-x="571" unicode="Ë"/><glyph d="M92 0v684l84 12v-696h-84zM203 774l-170 94l34 61l166 -101z" glyph-name="Igrave" horiz-adv-x="268" unicode="Ì"/><glyph d="M92 0v684l84 12v-696h-84zM58 774l-30 54l166 101l34 -61z" glyph-name="Iacute" horiz-adv-x="268" unicode="Í"/><glyph d="M92 0v684l84 12v-696h-84zM43 759l-39 40l127 138l127 -138l-39 -40l-88 85z" glyph-name="Icircumflex" horiz-adv-x="268" unicode="Î"/><glyph d="M92 0v684l84 12v-696h-84zM38 799q-21 0 -35 14t-14 35t14 35t35 14t35 -14t14 -35t-14 -35t-35 -14zM224 799q-21 0 -35 14t-14 35t14 35t35 14q22 0 35.5 -14t13.5 -35t-13.5 -35t-35.5 -14z" glyph-name="Idieresis" horiz-adv-x="268" unicode="Ï"/><glyph d="M279 -12q-94 0 -187 17v305h-86v69h86v306q93 17 187 17q188 0 288.5 -99t100.5 -258t-100.5 -258t-288.5 -99zM180 64q54 -6 104 -6q146 0 221.5 79.5t75.5 207.5t-75.5 207.5t-221.5 79.5q-50 0 -104 -6v-247h172l-9 -69h-163v-246z" glyph-name="Eth" horiz-adv-x="732" unicode="Ð"/><glyph d="M92 0v690h69l372 -544v537l78 14v-697h-69l-373 546v-546h-77zM430 802q-32 0 -66.5 30t-53.5 30q-38 0 -45 -56l-55 5q11 114 93 114q32 0 66.5 -30t53.5 -30q38 0 46 56l54 -5q-11 -114 -93 -114z" glyph-name="Ntilde" horiz-adv-x="703" unicode="Ñ"/><glyph d="M395 -12q-145 0 -238 100.5t-93 256.5t93 256.5t238 100.5t238 -100.5t93 -256.5t-93 -256.5t-238 -100.5zM395 59q111 0 177.5 80.5t66.5 205.5t-66.5 205.5t-177.5 80.5t-177.5 -80.5t-66.5 -205.5t66.5 -205.5t177.5 -80.5zM470 765l-204 112l34 62l199 -121z" glyph-name="Ograve" horiz-adv-x="790" unicode="Ò"/><glyph d="M395 -12q-145 0 -238 100.5t-93 256.5t93 256.5t238 100.5t238 -100.5t93 -256.5t-93 -256.5t-238 -100.5zM395 59q111 0 177.5 80.5t66.5 205.5t-66.5 205.5t-177.5 80.5t-177.5 -80.5t-66.5 -205.5t66.5 -205.5t177.5 -80.5zM302 765l-29 53l199 121l34 -62z" glyph-name="Oacute" horiz-adv-x="790" unicode="Ó"/><glyph d="M395 -12q-145 0 -238 100.5t-93 256.5t93 256.5t238 100.5t238 -100.5t93 -256.5t-93 -256.5t-238 -100.5zM395 59q111 0 177.5 80.5t66.5 205.5t-66.5 205.5t-177.5 80.5t-177.5 -80.5t-66.5 -205.5t66.5 -205.5t177.5 -80.5zM286 766l-37 42l146 136l146 -136l-37 -42 l-109 91z" glyph-name="Ocircumflex" horiz-adv-x="790" unicode="Ô"/><glyph d="M395 -12q-145 0 -238 100.5t-93 256.5t93 256.5t238 100.5t238 -100.5t93 -256.5t-93 -256.5t-238 -100.5zM395 59q111 0 177.5 80.5t66.5 205.5t-66.5 205.5t-177.5 80.5t-177.5 -80.5t-66.5 -205.5t66.5 -205.5t177.5 -80.5zM458 802q-32 0 -66.5 30t-53.5 30 q-38 0 -45 -56l-55 5q11 114 93 114q32 0 66.5 -30t53.5 -30q38 0 46 56l54 -5q-11 -114 -93 -114z" glyph-name="Otilde" horiz-adv-x="790" unicode="Õ"/><glyph d="M395 -12q-145 0 -238 100.5t-93 256.5t93 256.5t238 100.5t238 -100.5t93 -256.5t-93 -256.5t-238 -100.5zM395 59q111 0 177.5 80.5t66.5 205.5t-66.5 205.5t-177.5 80.5t-177.5 -80.5t-66.5 -205.5t66.5 -205.5t177.5 -80.5zM302 799q-21 0 -35 14t-14 35t14 35t35 14 t35 -14t14 -35t-14 -35t-35 -14zM488 799q-21 0 -35 14t-14 35t14 35t35 14q22 0 35.5 -14t13.5 -35t-13.5 -35t-35.5 -14z" glyph-name="Odieresis" horiz-adv-x="790" unicode="Ö"/><glyph d="M515 97l-205 204l-205 -204l-45 44l205 205l-205 205l45 46l205 -206l205 206l45 -46l-205 -205l205 -205z" glyph-name="multiply" horiz-adv-x="620" unicode="×"/><glyph d="M395 -12q-98 0 -174 48l-65 -93l-57 42l66 95q-101 101 -101 265q0 156 93 256.5t238 100.5q96 0 174 -47l64 91l57 -42l-66 -93q102 -102 102 -266q0 -156 -93 -256.5t-238 -100.5zM395 59q111 0 177.5 80.5t66.5 205.5q0 119 -61 199l-314 -447q59 -38 131 -38z M151 345q0 -119 61 -199l313 447q-57 38 -130 38q-111 0 -177.5 -80.5t-66.5 -205.5z" glyph-name="Oslash" horiz-adv-x="790" unicode="Ø"/><glyph d="M344 -12q-119 0 -190 68t-71 193v434l88 14v-443q0 -90 47 -141.5t126 -51.5q80 0 127 51.5t47 141.5v429l88 14v-448q0 -125 -71 -193t-191 -68zM424 765l-204 112l34 62l199 -121z" glyph-name="Ugrave" horiz-adv-x="689" unicode="Ù"/><glyph d="M344 -12q-119 0 -190 68t-71 193v434l88 14v-443q0 -90 47 -141.5t126 -51.5q80 0 127 51.5t47 141.5v429l88 14v-448q0 -125 -71 -193t-191 -68zM255 765l-29 53l199 121l34 -62z" glyph-name="Uacute" horiz-adv-x="689" unicode="Ú"/><glyph d="M344 -12q-119 0 -190 68t-71 193v434l88 14v-443q0 -90 47 -141.5t126 -51.5q80 0 127 51.5t47 141.5v429l88 14v-448q0 -125 -71 -193t-191 -68zM239 766l-37 42l146 136l146 -136l-37 -42l-109 91z" glyph-name="Ucircumflex" horiz-adv-x="689" unicode="Û"/><glyph d="M344 -12q-119 0 -190 68t-71 193v434l88 14v-443q0 -90 47 -141.5t126 -51.5q80 0 127 51.5t47 141.5v429l88 14v-448q0 -125 -71 -193t-191 -68zM255 799q-21 0 -35 14t-14 35t14 35t35 14t35 -14t14 -35t-14 -35t-35 -14zM441 799q-21 0 -35 14t-14 35t14 35t35 14 q22 0 35.5 -14t13.5 -35t-13.5 -35t-35.5 -14z" glyph-name="Udieresis" horiz-adv-x="689" unicode="Ü"/><glyph d="M307 0v293l-264 391l91 12l217 -324l217 324l90 -12l-263 -391v-293h-88zM257 765l-29 53l199 121l34 -62z" glyph-name="Yacute" horiz-adv-x="702" unicode="Ý"/><glyph d="M274 132q-48 0 -94 6v-138h-88v684l88 12v-113q53 5 94 5q145 0 218 -62t73 -166t-73 -166t-218 -62zM180 206q68 -6 99 -6q96 0 147 43t51 117t-51 117t-147 43q-48 0 -99 -6v-308z" glyph-name="Thorn" horiz-adv-x="607" unicode="Þ"/><glyph d="M77 515q0 115 61.5 176t165.5 61q94 0 154 -50.5t60 -141.5q0 -124 -100 -169q76 -18 115 -68.5t39 -122.5q0 -90 -58.5 -151t-166.5 -61q-75 0 -139 31l21 65q54 -27 110 -27q69 0 108 42.5t39 103.5t-41.5 100t-118.5 39h-60v69h25q72 0 109 40.5t37 98.5t-36.5 95.5 t-96.5 37.5q-65 0 -104 -43t-39 -124v-516h-84v515z" glyph-name="germandbls" horiz-adv-x="621" unicode="ß"/><glyph d="M467 -12q-43 0 -71 21.5t-32 64.5q-54 -86 -163 -86q-68 0 -113 37t-45 105q0 73 55 111.5t153 38.5q58 0 115 -17l1 43q1 59 -36 89t-96 30q-71 0 -128 -43l-37 58q68 55 171 55q95 0 150.5 -45t54.5 -135l-2 -196q-2 -57 45 -57q15 0 30 5v-71q-26 -8 -52 -8zM332 558 l-204 112l34 62l199 -121zM128 136q0 -39 28.5 -61t69.5 -22q57 0 95.5 42t42.5 115q-51 17 -102 17q-62 0 -98 -23.5t-36 -67.5z" glyph-name="agrave" horiz-adv-x="557" unicode="à"/><glyph d="M467 -12q-43 0 -71 21.5t-32 64.5q-54 -86 -163 -86q-68 0 -113 37t-45 105q0 73 55 111.5t153 38.5q58 0 115 -17l1 43q1 59 -36 89t-96 30q-71 0 -128 -43l-37 58q68 55 171 55q95 0 150.5 -45t54.5 -135l-2 -196q-2 -57 45 -57q15 0 30 5v-71q-26 -8 -52 -8zM164 558 l-29 53l199 121l34 -62zM128 136q0 -39 28.5 -61t69.5 -22q57 0 95.5 42t42.5 115q-51 17 -102 17q-62 0 -98 -23.5t-36 -67.5z" glyph-name="aacute" horiz-adv-x="557" unicode="á"/><glyph d="M467 -12q-43 0 -71 21.5t-32 64.5q-54 -86 -163 -86q-68 0 -113 37t-45 105q0 73 55 111.5t153 38.5q58 0 115 -17l1 43q1 59 -36 89t-96 30q-71 0 -128 -43l-37 58q68 55 171 55q95 0 150.5 -45t54.5 -135l-2 -196q-2 -57 45 -57q15 0 30 5v-71q-26 -8 -52 -8zM148 559 l-37 42l146 136l146 -136l-37 -42l-109 91zM128 136q0 -39 28.5 -61t69.5 -22q57 0 95.5 42t42.5 115q-51 17 -102 17q-62 0 -98 -23.5t-36 -67.5z" glyph-name="acircumflex" horiz-adv-x="557" unicode="â"/><glyph d="M467 -12q-43 0 -71 21.5t-32 64.5q-54 -86 -163 -86q-68 0 -113 37t-45 105q0 73 55 111.5t153 38.5q58 0 115 -17l1 43q1 59 -36 89t-96 30q-71 0 -128 -43l-37 58q68 55 171 55q95 0 150.5 -45t54.5 -135l-2 -196q-2 -57 45 -57q15 0 30 5v-71q-26 -8 -52 -8zM320 595 q-32 0 -66.5 30t-53.5 30q-38 0 -45 -56l-55 5q11 114 93 114q32 0 66.5 -30t53.5 -30q38 0 46 56l54 -5q-11 -114 -93 -114zM128 136q0 -39 28.5 -61t69.5 -22q57 0 95.5 42t42.5 115q-51 17 -102 17q-62 0 -98 -23.5t-36 -67.5z" glyph-name="atilde" horiz-adv-x="557" unicode="ã"/><glyph d="M467 -12q-43 0 -71 21.5t-32 64.5q-54 -86 -163 -86q-68 0 -113 37t-45 105q0 73 55 111.5t153 38.5q58 0 115 -17l1 43q1 59 -36 89t-96 30q-71 0 -128 -43l-37 58q68 55 171 55q95 0 150.5 -45t54.5 -135l-2 -196q-2 -57 45 -57q15 0 30 5v-71q-26 -8 -52 -8zM164 592 q-21 0 -35 14t-14 35t14 35t35 14t35 -14t14 -35t-14 -35t-35 -14zM350 592q-21 0 -35 14t-14 35t14 35t35 14q22 0 35.5 -14t13.5 -35t-13.5 -35t-35.5 -14zM128 136q0 -39 28.5 -61t69.5 -22q57 0 95.5 42t42.5 115q-51 17 -102 17q-62 0 -98 -23.5t-36 -67.5z" glyph-name="adieresis" horiz-adv-x="557" unicode="ä"/><glyph d="M467 -12q-43 0 -71 21.5t-32 64.5q-54 -86 -163 -86q-68 0 -113 37t-45 105q0 73 55 111.5t153 38.5q58 0 115 -17l1 43q1 59 -36 89t-96 30q-71 0 -128 -43l-37 58q68 55 171 55q95 0 150.5 -45t54.5 -135l-2 -196q-2 -57 45 -57q15 0 30 5v-71q-26 -8 -52 -8zM256 547 q-43 0 -72 28t-29 70q0 41 29 69t72 28q44 0 72.5 -27.5t28.5 -69.5t-28.5 -70t-72.5 -28zM256 589q24 0 39.5 15.5t15.5 40.5q0 24 -15.5 39.5t-39.5 15.5t-39 -15.5t-15 -39.5q0 -25 15 -40.5t39 -15.5zM128 136q0 -39 28.5 -61t69.5 -22q57 0 95.5 42t42.5 115 q-51 17 -102 17q-62 0 -98 -23.5t-36 -67.5z" glyph-name="aring" horiz-adv-x="557" unicode="å"/><glyph d="M617 -12q-156 0 -219 123q-27 -59 -80.5 -91t-116.5 -32q-68 0 -113 37t-45 105q0 73 55 111.5t153 38.5q58 0 115 -17l1 43q1 59 -36 89t-96 30q-71 0 -128 -43l-37 58q68 55 171 55q132 0 178 -84q62 84 178 84q98 0 156 -60.5t58 -160.5q0 -24 -6 -54h-353 q6 -73 51 -119t122 -46q74 0 137 44l26 -58q-74 -53 -171 -53zM128 136q0 -39 28.5 -61t69.5 -22q57 0 95.5 42t42.5 115q-51 17 -102 17q-62 0 -98 -23.5t-36 -67.5zM453 280h283q0 64 -37 106.5t-100 42.5q-59 0 -98 -39t-48 -110z" glyph-name="ae" horiz-adv-x="861" unicode="æ"/><glyph d="M302 -12l-12 -43q99 -4 99 -79q0 -40 -30.5 -65t-83.5 -25q-40 0 -76 15l12 42q33 -11 58 -11q27 0 45.5 12t18.5 34q0 45 -93 44l22 79q-96 13 -152.5 80.5t-56.5 170.5q0 113 68.5 183t180.5 70q82 0 146 -39l-30 -63q-52 32 -107 32q-78 0 -125 -52.5t-47 -130.5 q0 -79 47 -131.5t125 -52.5q55 0 107 32l30 -63q-64 -39 -146 -39z" glyph-name="ccedilla" horiz-adv-x="495" unicode="ç"/><glyph d="M301 -12q-116 0 -182 70.5t-66 183.5q0 116 63 184.5t165 68.5q98 0 156 -60.5t58 -160.5q0 -32 -6 -54h-352q6 -73 51 -119t122 -46q73 0 136 44l27 -58q-75 -53 -172 -53zM358 558l-204 112l34 62l199 -121zM138 280h282q0 64 -36.5 106.5t-100.5 42.5q-59 0 -97.5 -39 t-47.5 -110z" glyph-name="egrave" horiz-adv-x="546" unicode="è"/><glyph d="M301 -12q-116 0 -182 70.5t-66 183.5q0 116 63 184.5t165 68.5q98 0 156 -60.5t58 -160.5q0 -32 -6 -54h-352q6 -73 51 -119t122 -46q73 0 136 44l27 -58q-75 -53 -172 -53zM189 558l-29 53l199 121l34 -62zM138 280h282q0 64 -36.5 106.5t-100.5 42.5q-59 0 -97.5 -39 t-47.5 -110z" glyph-name="eacute" horiz-adv-x="546" unicode="é"/><glyph d="M301 -12q-116 0 -182 70.5t-66 183.5q0 116 63 184.5t165 68.5q98 0 156 -60.5t58 -160.5q0 -32 -6 -54h-352q6 -73 51 -119t122 -46q73 0 136 44l27 -58q-75 -53 -172 -53zM174 559l-37 42l146 136l146 -136l-37 -42l-109 91zM138 280h282q0 64 -36.5 106.5t-100.5 42.5 q-59 0 -97.5 -39t-47.5 -110z" glyph-name="ecircumflex" horiz-adv-x="546" unicode="ê"/><glyph d="M301 -12q-116 0 -182 70.5t-66 183.5q0 116 63 184.5t165 68.5q98 0 156 -60.5t58 -160.5q0 -32 -6 -54h-352q6 -73 51 -119t122 -46q73 0 136 44l27 -58q-75 -53 -172 -53zM189 592q-21 0 -35 14t-14 35t14 35t35 14t35 -14t14 -35t-14 -35t-35 -14zM375 592 q-21 0 -35 14t-14 35t14 35t35 14q22 0 35.5 -14t13.5 -35t-13.5 -35t-35.5 -14zM138 280h282q0 64 -36.5 106.5t-100.5 42.5q-59 0 -97.5 -39t-47.5 -110z" glyph-name="edieresis" horiz-adv-x="546" unicode="ë"/><glyph d="M77 0v477l84 12v-489h-84zM192 567l-170 94l34 61l166 -101z" glyph-name="igrave" horiz-adv-x="238" unicode="ì"/><glyph d="M77 0v477l84 12v-489h-84zM46 567l-30 54l166 101l34 -61z" glyph-name="iacute" horiz-adv-x="238" unicode="í"/><glyph d="M77 0v477l84 12v-489h-84zM31 552l-39 40l127 138l127 -138l-39 -40l-88 85z" glyph-name="icircumflex" horiz-adv-x="238" unicode="î"/><glyph d="M77 0v477l84 12v-489h-84zM48 588q-21 0 -35 14.5t-14 34.5q0 21 13.5 35t35.5 14t35.5 -14t13.5 -35q0 -20 -14 -34.5t-35 -14.5zM190 588q-22 0 -35.5 14.5t-13.5 34.5q0 21 13.5 35t35.5 14t35.5 -14t13.5 -35q0 -20 -14 -34.5t-35 -14.5z" glyph-name="idieresis" horiz-adv-x="238" unicode="ï"/><glyph d="M282 -12q-100 0 -165 65t-65 171q0 104 61.5 168.5t157.5 64.5q117 0 170 -94q-22 107 -90 189l-129 -51l-21 56l105 41q-77 68 -169 89l10 62q136 -21 236 -121l129 50l21 -55l-108 -42q99 -131 99 -306q0 -135 -66.5 -211t-175.5 -76zM286 53q67 0 110.5 47.5 t43.5 123.5t-43.5 123t-110.5 47t-110.5 -47t-43.5 -123t43.5 -123.5t110.5 -47.5z" glyph-name="eth" horiz-adv-x="581" unicode="ð"/><glyph d="M407 285q0 67 -28.5 103.5t-82.5 36.5q-61 0 -98 -46t-37 -130v-249h-84v477l76 12v-98q49 104 165 104q79 0 126 -50.5t47 -143.5v-301h-84v285zM353 595q-32 0 -66.5 30t-53.5 30q-38 0 -45 -56l-55 5q11 114 93 114q32 0 66.5 -30t53.5 -30q38 0 46 56l54 -5 q-11 -114 -93 -114z" glyph-name="ntilde" horiz-adv-x="560" unicode="ñ"/><glyph d="M291 -12q-106 0 -172 69.5t-66 184.5q0 114 66 183.5t172 69.5t171.5 -69.5t65.5 -183.5q0 -115 -65.5 -184.5t-171.5 -69.5zM291 58q68 0 110.5 50t42.5 134t-42.5 133.5t-110.5 49.5t-111 -49.5t-43 -133.5t43 -134t111 -50zM366 558l-204 112l34 62l199 -121z" glyph-name="ograve" horiz-adv-x="581" unicode="ò"/><glyph d="M291 -12q-106 0 -172 69.5t-66 184.5q0 114 66 183.5t172 69.5t171.5 -69.5t65.5 -183.5q0 -115 -65.5 -184.5t-171.5 -69.5zM291 58q68 0 110.5 50t42.5 134t-42.5 133.5t-110.5 49.5t-111 -49.5t-43 -133.5t43 -134t111 -50zM197 558l-29 53l199 121l34 -62z" glyph-name="oacute" horiz-adv-x="581" unicode="ó"/><glyph d="M291 -12q-106 0 -172 69.5t-66 184.5q0 114 66 183.5t172 69.5t171.5 -69.5t65.5 -183.5q0 -115 -65.5 -184.5t-171.5 -69.5zM291 58q68 0 110.5 50t42.5 134t-42.5 133.5t-110.5 49.5t-111 -49.5t-43 -133.5t43 -134t111 -50zM182 559l-37 42l146 136l146 -136l-37 -42 l-109 91z" glyph-name="ocircumflex" horiz-adv-x="581" unicode="ô"/><glyph d="M291 -12q-106 0 -172 69.5t-66 184.5q0 114 66 183.5t172 69.5t171.5 -69.5t65.5 -183.5q0 -115 -65.5 -184.5t-171.5 -69.5zM291 58q68 0 110.5 50t42.5 134t-42.5 133.5t-110.5 49.5t-111 -49.5t-43 -133.5t43 -134t111 -50zM354 595q-32 0 -66.5 30t-53.5 30 q-38 0 -45 -56l-55 5q11 114 93 114q32 0 66.5 -30t53.5 -30q38 0 46 56l54 -5q-11 -114 -93 -114z" glyph-name="otilde" horiz-adv-x="581" unicode="õ"/><glyph d="M291 -12q-106 0 -172 69.5t-66 184.5q0 114 66 183.5t172 69.5t171.5 -69.5t65.5 -183.5q0 -115 -65.5 -184.5t-171.5 -69.5zM291 58q68 0 110.5 50t42.5 134t-42.5 133.5t-110.5 49.5t-111 -49.5t-43 -133.5t43 -134t111 -50zM197 592q-21 0 -35 14t-14 35t14 35t35 14 t35 -14t14 -35t-14 -35t-35 -14zM383 592q-21 0 -35 14t-14 35t14 35t35 14q22 0 35.5 -14t13.5 -35t-13.5 -35t-35.5 -14z" glyph-name="odieresis" horiz-adv-x="581" unicode="ö"/><glyph d="M60 315v63h500v-63h-500zM310 475q-21 0 -35 14t-14 35t14 35.5t35 14.5t35 -14.5t14 -35.5t-14 -35t-35 -14zM310 120q-21 0 -35 14.5t-14 34.5q0 21 14 35.5t35 14.5t35 -14.5t14 -35.5q0 -20 -14 -34.5t-35 -14.5z" glyph-name="divide" horiz-adv-x="620" unicode="÷"/><glyph d="M291 -12q-61 0 -111 25l-50 -71l-67 48l51 73q-61 69 -61 179q0 114 66 183.5t172 69.5q61 0 111 -24l49 70l67 -48l-51 -72q61 -69 61 -179q0 -115 -65.5 -184.5t-171.5 -69.5zM291 58q68 0 110.5 50t42.5 134q0 65 -26 109l-195 -277q29 -16 68 -16zM137 242 q0 -66 26 -110l195 277q-29 16 -67 16q-68 0 -111 -49.5t-43 -133.5z" glyph-name="oslash" horiz-adv-x="581" unicode="ø"/><glyph d="M248 -12q-80 0 -129.5 49t-49.5 141v301l84 9v-295q0 -65 31 -100t86 -35q61 0 95 44t34 128v249l84 9v-488h-69l-4 89q-45 -101 -162 -101zM352 558l-204 112l34 62l199 -121z" glyph-name="ugrave" horiz-adv-x="561" unicode="ù"/><glyph d="M248 -12q-80 0 -129.5 49t-49.5 141v301l84 9v-295q0 -65 31 -100t86 -35q61 0 95 44t34 128v249l84 9v-488h-69l-4 89q-45 -101 -162 -101zM183 558l-29 53l199 121l34 -62z" glyph-name="uacute" horiz-adv-x="561" unicode="ú"/><glyph d="M248 -12q-80 0 -129.5 49t-49.5 141v301l84 9v-295q0 -65 31 -100t86 -35q61 0 95 44t34 128v249l84 9v-488h-69l-4 89q-45 -101 -162 -101zM167 559l-37 42l146 136l146 -136l-37 -42l-109 91z" glyph-name="ucircumflex" horiz-adv-x="561" unicode="û"/><glyph d="M248 -12q-80 0 -129.5 49t-49.5 141v301l84 9v-295q0 -65 31 -100t86 -35q61 0 95 44t34 128v249l84 9v-488h-69l-4 89q-45 -101 -162 -101zM183 592q-21 0 -35 14t-14 35t14 35t35 14t35 -14t14 -35t-14 -35t-35 -14zM369 592q-21 0 -35 14t-14 35t14 35t35 14 q22 0 35.5 -14t13.5 -35t-13.5 -35t-35.5 -14z" glyph-name="udieresis" horiz-adv-x="561" unicode="ü"/><glyph d="M256 -237q-101 0 -178 63l30 59q71 -54 142 -54q149 0 149 153v85q-49 -81 -151 -81q-80 0 -129.5 49t-49.5 141v301l84 9v-295q0 -65 31 -100t86 -35q61 0 95 44t34 128v249l84 9v-504q0 -101 -62 -161t-165 -60zM188 558l-29 53l199 121l34 -62z" glyph-name="yacute" horiz-adv-x="561" unicode="ý"/><glyph d="M335 -12q-117 0 -174 103v-309l-84 -12v964l84 12v-354q57 103 174 103q97 0 158.5 -69.5t61.5 -183.5t-61.5 -184t-158.5 -70zM316 57q69 0 112 50t43 135q0 84 -43 134t-112 50q-68 0 -111.5 -50t-43.5 -134t43.5 -134.5t111.5 -50.5z" glyph-name="thorn" horiz-adv-x="608" unicode="þ"/><glyph d="M256 -237q-101 0 -178 63l30 59q71 -54 142 -54q149 0 149 153v85q-49 -81 -151 -81q-80 0 -129.5 49t-49.5 141v301l84 9v-295q0 -65 31 -100t86 -35q61 0 95 44t34 128v249l84 9v-504q0 -101 -62 -161t-165 -60zM189 592q-21 0 -35 14t-14 35t14 35t35 14t35 -14 t14 -35t-14 -35t-35 -14zM375 592q-21 0 -35 14t-14 35t14 35t35 14q22 0 35.5 -14t13.5 -35t-13.5 -35t-35.5 -14z" glyph-name="ydieresis" horiz-adv-x="561" unicode="ÿ"/><glyph d="M137 -7l-87 14l284 683h68l282 -683l-83 -14l-76 186h-312zM223 809v64h275l-9 -64h-266zM240 247h257l-129 313z" glyph-name="Amacron" horiz-adv-x="734" unicode="Ā"/><glyph d="M467 -12q-43 0 -71 21.5t-32 64.5q-54 -86 -163 -86q-68 0 -113 37t-45 105q0 73 55 111.5t153 38.5q58 0 115 -17l1 43q1 59 -36 89t-96 30q-71 0 -128 -43l-37 58q68 55 171 55q95 0 150.5 -45t54.5 -135l-2 -196q-2 -57 45 -57q15 0 30 5v-71q-26 -8 -52 -8zM119 602 v64h275l-9 -64h-266zM128 136q0 -39 28.5 -61t69.5 -22q57 0 95.5 42t42.5 115q-51 17 -102 17q-62 0 -98 -23.5t-36 -67.5z" glyph-name="amacron" horiz-adv-x="557" unicode="ā"/><glyph d="M137 -7l-87 14l284 683h68l282 -683l-83 -14l-76 186h-312zM361 770q-63 0 -100.5 42t-35.5 111l57 3q0 -46 20.5 -72.5t58.5 -26.5t58.5 26.5t20.5 72.5l56 -3q3 -69 -34.5 -111t-100.5 -42zM240 247h257l-129 313z" glyph-name="Abreve" horiz-adv-x="734" unicode="Ă"/><glyph d="M467 -12q-43 0 -71 21.5t-32 64.5q-54 -86 -163 -86q-68 0 -113 37t-45 105q0 73 55 111.5t153 38.5q58 0 115 -17l1 43q1 59 -36 89t-96 30q-71 0 -128 -43l-37 58q68 55 171 55q95 0 150.5 -45t54.5 -135l-2 -196q-2 -57 45 -57q15 0 30 5v-71q-26 -8 -52 -8zM257 563 q-63 0 -100.5 42t-35.5 111l57 3q0 -46 20.5 -72.5t58.5 -26.5t58.5 26.5t20.5 72.5l56 -3q3 -69 -34.5 -111t-100.5 -42zM128 136q0 -39 28.5 -61t69.5 -22q57 0 95.5 42t42.5 115q-51 17 -102 17q-62 0 -98 -23.5t-36 -67.5z" glyph-name="abreve" horiz-adv-x="557" unicode="ă"/><glyph d="M137 -7l-87 14l284 683h68l282 -683h1q-93 -47 -93 -112q0 -26 16 -42t42 -16q19 0 36 7l14 -51q-32 -13 -65 -13q-49 0 -80 27t-31 73q0 70 77 114l-76 185h-312zM240 247h257l-129 313z" glyph-name="Aogonek" horiz-adv-x="734" unicode="Ą"/><glyph d="M201 -12q-68 0 -113 37t-45 105q0 73 55 111.5t153 38.5q58 0 115 -17l1 43q1 59 -36 89t-96 30q-71 0 -128 -43l-37 58q68 55 171 55q95 0 150.5 -45t54.5 -135l-2 -196q-2 -57 45 -57q15 0 30 5v-71h1q-93 -46 -93 -112q0 -26 16 -42t42 -16q19 0 36 7l14 -51 q-32 -13 -65 -13q-49 0 -80 27t-31 73q0 75 89 120q-77 10 -84 85q-54 -86 -163 -86zM128 136q0 -39 28.5 -61t69.5 -22q57 0 95.5 42t42.5 115q-51 17 -102 17q-62 0 -98 -23.5t-36 -67.5z" glyph-name="aogonek" horiz-adv-x="557" unicode="ą"/><glyph d="M405 -12q-152 0 -246.5 99t-94.5 258t94.5 258t246.5 99q115 0 205 -56l-31 -65q-78 50 -168 50q-115 0 -187.5 -80t-72.5 -206t72.5 -206t187.5 -80q90 0 168 50l31 -65q-90 -56 -205 -56zM307 765l-29 53l199 121l34 -62z" glyph-name="Cacute" horiz-adv-x="672" unicode="Ć"/><glyph d="M302 -12q-112 0 -180.5 70t-68.5 184q0 113 68.5 183t180.5 70q82 0 146 -39l-30 -63q-52 32 -107 32q-78 0 -125 -52.5t-47 -130.5q0 -79 47 -131.5t125 -52.5q55 0 107 32l30 -63q-64 -39 -146 -39zM205 558l-29 53l199 121l34 -62z" glyph-name="cacute" horiz-adv-x="495" unicode="ć"/><glyph d="M405 -12q-152 0 -246.5 99t-94.5 258t94.5 258t246.5 99q115 0 205 -56l-31 -65q-78 50 -168 50q-115 0 -187.5 -80t-72.5 -206t72.5 -206t187.5 -80q90 0 168 50l31 -65q-90 -56 -205 -56zM291 766l-37 42l146 136l146 -136l-37 -42l-109 91z" glyph-name="Ccircumflex" horiz-adv-x="672" unicode="Ĉ"/><glyph d="M302 -12q-112 0 -180.5 70t-68.5 184q0 113 68.5 183t180.5 70q82 0 146 -39l-30 -63q-52 32 -107 32q-78 0 -125 -52.5t-47 -130.5q0 -79 47 -131.5t125 -52.5q55 0 107 32l30 -63q-64 -39 -146 -39zM189 559l-37 42l146 136l146 -136l-37 -42l-109 91z" glyph-name="ccircumflex" horiz-adv-x="495" unicode="ĉ"/><glyph d="M405 -12q-152 0 -246.5 99t-94.5 258t94.5 258t246.5 99q115 0 205 -56l-31 -65q-78 50 -168 50q-115 0 -187.5 -80t-72.5 -206t72.5 -206t187.5 -80q90 0 168 50l31 -65q-90 -56 -205 -56zM400 795q-25 0 -40.5 16.5t-15.5 40.5t15.5 40t40.5 16t40.5 -16t15.5 -40 t-15.5 -40.5t-40.5 -16.5z" glyph-name="Cdotaccent" horiz-adv-x="672" unicode="Ċ"/><glyph d="M302 -12q-112 0 -180.5 70t-68.5 184q0 113 68.5 183t180.5 70q82 0 146 -39l-30 -63q-52 32 -107 32q-78 0 -125 -52.5t-47 -130.5q0 -79 47 -131.5t125 -52.5q55 0 107 32l30 -63q-64 -39 -146 -39zM298 588q-25 0 -40.5 16.5t-15.5 40.5t15.5 40t40.5 16t40.5 -16 t15.5 -40t-15.5 -40.5t-40.5 -16.5z" glyph-name="cdotaccent" horiz-adv-x="495" unicode="ċ"/><glyph d="M405 -12q-152 0 -246.5 99t-94.5 258t94.5 258t246.5 99q115 0 205 -56l-31 -65q-78 50 -168 50q-115 0 -187.5 -80t-72.5 -206t72.5 -206t187.5 -80q90 0 168 50l31 -65q-90 -56 -205 -56zM400 763l-146 136l37 41l109 -94l109 94l37 -41z" glyph-name="Ccaron" horiz-adv-x="672" unicode="Č"/><glyph d="M302 -12q-112 0 -180.5 70t-68.5 184q0 113 68.5 183t180.5 70q82 0 146 -39l-30 -63q-52 32 -107 32q-78 0 -125 -52.5t-47 -130.5q0 -79 47 -131.5t125 -52.5q55 0 107 32l30 -63q-64 -39 -146 -39zM298 556l-146 136l37 41l109 -94l109 94l37 -41z" glyph-name="ccaron" horiz-adv-x="495" unicode="č"/><glyph d="M279 -12q-94 0 -187 17v680q93 17 187 17q188 0 288.5 -99t100.5 -258t-100.5 -258t-288.5 -99zM316 763l-146 136l37 41l109 -94l109 94l37 -41zM180 64q54 -6 104 -6q146 0 221.5 79.5t75.5 207.5t-75.5 207.5t-221.5 79.5q-50 0 -104 -6v-562z" glyph-name="Dcaron" horiz-adv-x="732" unicode="Ď"/><glyph d="M273 -12q-97 0 -158.5 70t-61.5 184t61.5 183.5t158.5 69.5q117 0 174 -103v342l84 12v-745h-69l-5 112q-53 -125 -184 -125zM292 57q69 0 112 50t43 135q0 84 -43 134t-112 50t-112 -50t-43 -134q0 -85 43 -135t112 -50zM600 596q42 25 46 64l-44 13q-5 17 -5 28 q0 23 14.5 37t35.5 14q25 0 40 -19t15 -53q0 -37 -21 -68.5t-59 -51.5z" glyph-name="dcaron" horiz-adv-x="608" unicode="ď"/><glyph d="M279 -12q-94 0 -187 17v305h-86v69h86v306q93 17 187 17q188 0 288.5 -99t100.5 -258t-100.5 -258t-288.5 -99zM180 64q54 -6 104 -6q146 0 221.5 79.5t75.5 207.5t-75.5 207.5t-221.5 79.5q-50 0 -104 -6v-247h172l-9 -69h-163v-246z" glyph-name="Dcroat" horiz-adv-x="732" unicode="Đ"/><glyph d="M273 -12q-97 0 -158.5 70t-61.5 184t61.5 183.5t158.5 69.5q117 0 174 -103v175h-178v66h178v101l84 12v-113h86v-66h-86v-566h-69l-5 112q-53 -125 -184 -125zM292 57q69 0 112 50t43 135q0 84 -43 134t-112 50t-112 -50t-43 -134q0 -85 43 -135t112 -50z" glyph-name="dcroat" horiz-adv-x="608" unicode="đ"/><glyph d="M92 0v690h422l-9 -71h-325v-233h285v-72h-285v-243h337l-9 -71h-416zM173 809v64h275l-9 -64h-266z" glyph-name="Emacron" horiz-adv-x="571" unicode="Ē"/><glyph d="M301 -12q-116 0 -182 70.5t-66 183.5q0 116 63 184.5t165 68.5q98 0 156 -60.5t58 -160.5q0 -32 -6 -54h-352q6 -73 51 -119t122 -46q73 0 136 44l27 -58q-75 -53 -172 -53zM145 602v64h275l-9 -64h-266zM138 280h282q0 64 -36.5 106.5t-100.5 42.5q-59 0 -97.5 -39 t-47.5 -110z" glyph-name="emacron" horiz-adv-x="546" unicode="ē"/><glyph d="M92 0v690h422l-9 -71h-325v-233h285v-72h-285v-243h337l-9 -71h-416zM310 770q-63 0 -100.5 42t-35.5 111l57 3q0 -46 20.5 -72.5t58.5 -26.5t58.5 26.5t20.5 72.5l56 -3q3 -69 -34.5 -111t-100.5 -42z" glyph-name="Ebreve" horiz-adv-x="571" unicode="Ĕ"/><glyph d="M301 -12q-116 0 -182 70.5t-66 183.5q0 116 63 184.5t165 68.5q98 0 156 -60.5t58 -160.5q0 -32 -6 -54h-352q6 -73 51 -119t122 -46q73 0 136 44l27 -58q-75 -53 -172 -53zM283 563q-63 0 -100.5 42t-35.5 111l57 3q0 -46 20.5 -72.5t58.5 -26.5t58.5 26.5t20.5 72.5 l56 -3q3 -69 -34.5 -111t-100.5 -42zM138 280h282q0 64 -36.5 106.5t-100.5 42.5q-59 0 -97.5 -39t-47.5 -110z" glyph-name="ebreve" horiz-adv-x="546" unicode="ĕ"/><glyph d="M92 0v690h422l-9 -71h-325v-233h285v-72h-285v-243h337l-9 -71h-416zM310 795q-25 0 -40.5 16.5t-15.5 40.5t15.5 40t40.5 16t40.5 -16t15.5 -40t-15.5 -40.5t-40.5 -16.5z" glyph-name="Edotaccent" horiz-adv-x="571" unicode="Ė"/><glyph d="M301 -12q-116 0 -182 70.5t-66 183.5q0 116 63 184.5t165 68.5q98 0 156 -60.5t58 -160.5q0 -32 -6 -54h-352q6 -73 51 -119t122 -46q73 0 136 44l27 -58q-75 -53 -172 -53zM282 588q-25 0 -40.5 16.5t-15.5 40.5t15.5 40t40.5 16t40.5 -16t15.5 -40t-15.5 -40.5 t-40.5 -16.5zM138 280h282q0 64 -36.5 106.5t-100.5 42.5q-59 0 -97.5 -39t-47.5 -110z" glyph-name="edotaccent" horiz-adv-x="546" unicode="ė"/><glyph d="M92 0v690h422l-9 -71h-325v-233h285v-72h-285v-243h337l-9 -71q-93 -46 -93 -112q0 -26 16 -42t42 -16q19 0 36 7l14 -51q-32 -13 -65 -13q-49 0 -80 27t-31 73q0 83 104 127h-359z" glyph-name="Eogonek" horiz-adv-x="571" unicode="Ę"/><glyph d="M301 -12q-116 0 -182 70.5t-66 183.5q0 116 63 184.5t165 68.5q98 0 156 -60.5t58 -160.5q0 -32 -6 -54h-352q6 -73 51 -119t122 -46q73 0 136 44l27 -58l-1 -1h1q-93 -98 -93 -155q0 -26 16 -42t42 -16q19 0 36 7l14 -51q-32 -13 -65 -13q-49 0 -80 26.5t-31 73.5 q0 64 69 128q-37 -10 -80 -10zM138 280h282q0 64 -36.5 106.5t-100.5 42.5q-59 0 -97.5 -39t-47.5 -110z" glyph-name="eogonek" horiz-adv-x="546" unicode="ę"/><glyph d="M92 0v690h422l-9 -71h-325v-233h285v-72h-285v-243h337l-9 -71h-416zM310 763l-146 136l37 41l109 -94l109 94l37 -41z" glyph-name="Ecaron" horiz-adv-x="571" unicode="Ě"/><glyph d="M301 -12q-116 0 -182 70.5t-66 183.5q0 116 63 184.5t165 68.5q98 0 156 -60.5t58 -160.5q0 -32 -6 -54h-352q6 -73 51 -119t122 -46q73 0 136 44l27 -58q-75 -53 -172 -53zM283 556l-146 136l37 41l109 -94l109 94l37 -41zM138 280h282q0 64 -36.5 106.5t-100.5 42.5 q-59 0 -97.5 -39t-47.5 -110z" glyph-name="ecaron" horiz-adv-x="546" unicode="ě"/><glyph d="M405 -9q-152 0 -246.5 98t-94.5 256t97 257.5t256 99.5q123 0 215 -57l-31 -63q-83 50 -178 50q-122 0 -197.5 -80t-75.5 -207t71.5 -205t187.5 -78q86 0 155 41v181h-202l9 68h276v-290q-108 -71 -242 -71zM291 766l-37 42l146 136l146 -136l-37 -42l-109 91z" glyph-name="Gcircumflex" horiz-adv-x="716" unicode="Ĝ"/><glyph d="M279 -236q-99 0 -199 50l29 64q88 -44 165 -44q86 0 130 48.5t44 136.5v80q-56 -104 -176 -104q-97 0 -158 69t-61 181t61 181t158 69q134 0 187 -127l3 115h70v-467q0 -119 -66.5 -185.5t-186.5 -66.5zM291 62q70 0 113.5 50t43.5 133t-43.5 133t-113.5 50t-113 -50 t-43 -133q0 -84 43 -133.5t113 -49.5zM196 559l-37 42l146 136l146 -136l-37 -42l-109 91z" glyph-name="gcircumflex" horiz-adv-x="609" unicode="ĝ"/><glyph d="M405 -9q-152 0 -246.5 98t-94.5 256t97 257.5t256 99.5q123 0 215 -57l-31 -63q-83 50 -178 50q-122 0 -197.5 -80t-75.5 -207t71.5 -205t187.5 -78q86 0 155 41v181h-202l9 68h276v-290q-108 -71 -242 -71zM400 770q-63 0 -100.5 42t-35.5 111l57 3q0 -46 20.5 -72.5 t58.5 -26.5t58.5 26.5t20.5 72.5l56 -3q3 -69 -34.5 -111t-100.5 -42z" glyph-name="Gbreve" horiz-adv-x="716" unicode="Ğ"/><glyph d="M279 -236q-99 0 -199 50l29 64q88 -44 165 -44q86 0 130 48.5t44 136.5v80q-56 -104 -176 -104q-97 0 -158 69t-61 181t61 181t158 69q134 0 187 -127l3 115h70v-467q0 -119 -66.5 -185.5t-186.5 -66.5zM291 62q70 0 113.5 50t43.5 133t-43.5 133t-113.5 50t-113 -50 t-43 -133q0 -84 43 -133.5t113 -49.5zM305 563q-63 0 -100.5 42t-35.5 111l57 3q0 -46 20.5 -72.5t58.5 -26.5t58.5 26.5t20.5 72.5l56 -3q3 -69 -34.5 -111t-100.5 -42z" glyph-name="gbreve" horiz-adv-x="609" unicode="ğ"/><glyph d="M405 -9q-152 0 -246.5 98t-94.5 256t97 257.5t256 99.5q123 0 215 -57l-31 -63q-83 50 -178 50q-122 0 -197.5 -80t-75.5 -207t71.5 -205t187.5 -78q86 0 155 41v181h-202l9 68h276v-290q-108 -71 -242 -71zM400 795q-25 0 -40.5 16.5t-15.5 40.5t15.5 40t40.5 16 t40.5 -16t15.5 -40t-15.5 -40.5t-40.5 -16.5z" glyph-name="Gdotaccent" horiz-adv-x="716" unicode="Ġ"/><glyph d="M279 -236q-99 0 -199 50l29 64q88 -44 165 -44q86 0 130 48.5t44 136.5v80q-56 -104 -176 -104q-97 0 -158 69t-61 181t61 181t158 69q134 0 187 -127l3 115h70v-467q0 -119 -66.5 -185.5t-186.5 -66.5zM291 62q70 0 113.5 50t43.5 133t-43.5 133t-113.5 50t-113 -50 t-43 -133q0 -84 43 -133.5t113 -49.5zM305 588q-25 0 -40.5 16.5t-15.5 40.5t15.5 40t40.5 16t40.5 -16t15.5 -40t-15.5 -40.5t-40.5 -16.5z" glyph-name="gdotaccent" horiz-adv-x="609" unicode="ġ"/><glyph d="M405 -9q-152 0 -246.5 98t-94.5 256t97 257.5t256 99.5q123 0 215 -57l-31 -63q-83 50 -178 50q-122 0 -197.5 -80t-75.5 -207t71.5 -205t187.5 -78q86 0 155 41v181h-202l9 68h276v-290q-108 -71 -242 -71zM349 -254q42 25 46 63l-44 13q-5 17 -5 28q0 23 14.5 37.5 t35.5 14.5q25 0 40 -19t15 -53q0 -78 -80 -120z" glyph-name="uni0122" horiz-adv-x="716" unicode="Ģ"/><glyph d="M279 -236q-99 0 -199 50l29 64q88 -44 165 -44q86 0 130 48.5t44 136.5v80q-56 -104 -176 -104q-97 0 -158 69t-61 181t61 181t158 69q134 0 187 -127l3 115h70v-467q0 -119 -66.5 -185.5t-186.5 -66.5zM291 62q70 0 113.5 50t43.5 133t-43.5 133t-113.5 50t-113 -50 t-43 -133q0 -84 43 -133.5t113 -49.5zM353 717q-41 -25 -45 -64l44 -12q5 -17 5 -28q0 -23 -14.5 -37.5t-35.5 -14.5q-25 0 -40 19t-15 53q0 78 80 120z" glyph-name="uni0123" horiz-adv-x="609" unicode="ģ"/><glyph d="M527 0v314h-347v-314h-88v683l88 14v-311h347v297l88 14v-697h-88zM244 766l-37 42l146 136l146 -136l-37 -42l-109 91z" glyph-name="Hcircumflex" horiz-adv-x="706" unicode="Ĥ"/><glyph d="M77 0v734l84 12v-339q51 88 157 88q79 0 126 -50.5t47 -143.5v-301h-84v285q0 67 -28.5 103.5t-82.5 36.5q-61 0 -98 -46t-37 -130v-249h-84zM10 816l-37 42l146 136l146 -136l-37 -42l-109 91z" glyph-name="hcircumflex" horiz-adv-x="560" unicode="ĥ"/><glyph d="M569 0v314h-347v-314h-88v515h-84v65h84v103l88 14v-117h347v103l88 14v-117h85l-9 -65h-76v-515h-88zM222 386h347v129h-347v-129z" glyph-name="Hbar" horiz-adv-x="795" unicode="Ħ"/><glyph d="M77 0v567h-86v66h86v101l84 12v-113h178v-66h-178v-160q51 88 157 88q79 0 126 -50.5t47 -143.5v-301h-84v285q0 67 -28.5 103.5t-82.5 36.5q-61 0 -98 -46t-37 -130v-249h-84z" glyph-name="hbar" horiz-adv-x="560" unicode="ħ"/><glyph d="M92 0v684l84 12v-696h-84zM194 802q-32 0 -66.5 30t-53.5 30q-38 0 -45 -56l-55 5q11 114 93 114q32 0 66.5 -30t53.5 -30q38 0 46 56l54 -5q-11 -114 -93 -114z" glyph-name="Itilde" horiz-adv-x="268" unicode="Ĩ"/><glyph d="M77 0v477l84 12v-489h-84zM182 595q-32 0 -66.5 30t-53.5 30q-38 0 -45 -56l-55 5q11 114 93 114q32 0 66.5 -30t53.5 -30q38 0 46 56l54 -5q-11 -114 -93 -114z" glyph-name="itilde" horiz-adv-x="238" unicode="ĩ"/><glyph d="M92 0v684l84 12v-696h-84zM-7 809v64h275l-9 -64h-266z" glyph-name="Imacron" horiz-adv-x="268" unicode="Ī"/><glyph d="M77 0v477l84 12v-489h-84zM23 597v64h196l-9 -64h-187z" glyph-name="imacron" horiz-adv-x="238" unicode="ī"/><glyph d="M92 0v684l84 12v-696h-84zM131 770q-63 0 -100.5 42t-35.5 111l57 3q0 -46 20.5 -72.5t58.5 -26.5t58.5 26.5t20.5 72.5l56 -3q3 -69 -34.5 -111t-100.5 -42z" glyph-name="Ibreve" horiz-adv-x="268" unicode="Ĭ"/><glyph d="M77 0v477l84 12v-489h-84zM119 563q-63 0 -100.5 42t-35.5 111l57 3q0 -46 20.5 -72.5t58.5 -26.5t58.5 26.5t20.5 72.5l56 -3q3 -69 -34.5 -111t-100.5 -42z" glyph-name="ibreve" horiz-adv-x="238" unicode="ĭ"/><glyph d="M92 0v684l84 12v-696q-93 -46 -93 -112q0 -26 16 -42t42 -16q19 0 36 7l14 -51q-32 -13 -65 -13q-49 0 -80 27t-31 73q0 83 104 127h-27z" glyph-name="Iogonek" horiz-adv-x="268" unicode="Į"/><glyph d="M77 0v477l84 12v-489q-93 -46 -93 -112q0 -26 16 -42t42 -16q19 0 36 7l14 -51q-32 -13 -65 -13q-49 0 -80 27t-31 73q0 83 104 127h-27zM119 588q-25 0 -40.5 16.5t-15.5 40.5t15.5 40t40.5 16t40.5 -16t15.5 -40t-15.5 -40.5t-40.5 -16.5z" glyph-name="iogonek" horiz-adv-x="238" unicode="į"/><glyph d="M92 0v684l84 12v-696h-84zM131 795q-25 0 -40.5 16.5t-15.5 40.5t15.5 40t40.5 16t40.5 -16t15.5 -40t-15.5 -40.5t-40.5 -16.5z" glyph-name="Idotaccent" horiz-adv-x="268" unicode="İ"/><glyph d="M77 0v477l84 12v-489h-84z" glyph-name="dotlessi" horiz-adv-x="238" unicode="ı"/><glyph d="M92 0v684l84 12v-696h-84zM463 -12q-85 0 -158 40l29 65q60 -33 118 -33q139 0 139 156v468l88 12v-480q0 -113 -57 -170.5t-159 -57.5z" glyph-name="IJ" horiz-adv-x="765" unicode="Ĳ"/><glyph d="M77 0v477l84 12v-489h-84zM119 588q-25 0 -40.5 16.5t-15.5 40.5t15.5 40t40.5 16t40.5 -16t15.5 -40t-15.5 -40.5t-40.5 -16.5zM266 -213q49 93 49 216v474l84 12v-484q0 -145 -60 -251zM356 588q-25 0 -40.5 16.5t-15.5 40.5t15.5 40t40.5 16t40.5 -16t15.5 -40 t-15.5 -40.5t-40.5 -16.5z" glyph-name="ij" horiz-adv-x="476" unicode="ĳ"/><glyph d="M200 -12q-86 0 -158 40l29 65q60 -33 118 -33q139 0 139 156v468l88 12v-480q0 -113 -57 -170.5t-159 -57.5zM284 759l-39 40l127 138l127 -138l-39 -40l-88 85z" glyph-name="Jcircumflex" horiz-adv-x="502" unicode="Ĵ"/><glyph d="M28 -213q49 93 49 216v474l84 12v-484q0 -145 -60 -251zM31 552l-39 40l127 138l127 -138l-39 -40l-88 85z" glyph-name="jcircumflex" horiz-adv-x="238" unicode="ĵ"/><glyph d="M92 0v684l88 12v-344q290 12 301 332l84 12q0 -238 -155 -346l204 -344l-88 -12l-188 318q-66 -26 -158 -31v-281h-88zM276 -254q42 25 46 63l-44 13q-5 17 -5 28q0 23 14.5 37.5t35.5 14.5q25 0 40 -19t15 -53q0 -78 -80 -120z" glyph-name="uni0136" horiz-adv-x="671" unicode="Ķ"/><glyph d="M77 0v734l84 12v-468q101 5 158 55.5t58 143.5l84 13q3 -158 -122 -235l165 -249l-90 -12l-150 227q-48 -16 -103 -17v-204h-84zM214 -254q42 25 46 63l-44 13q-5 17 -5 28q0 23 14.5 37.5t35.5 14.5q25 0 40 -19t15 -53q0 -78 -80 -120z" glyph-name="uni0137" horiz-adv-x="547" unicode="ķ"/><glyph d="M77 0v477l84 12v-211q101 5 158 55.5t58 143.5l84 13q3 -158 -122 -235l165 -249l-90 -12l-150 227q-48 -16 -103 -17v-204h-84z" glyph-name="kgreenlandic" horiz-adv-x="547" unicode="ĸ"/><glyph d="M92 0v683l88 14v-626h316l-10 -71h-394zM43 765l-29 53l199 121l34 -62z" glyph-name="Lacute" horiz-adv-x="524" unicode="Ĺ"/><glyph d="M206 -8q-132 0 -132 159v583l84 12v-597q0 -87 67 -87q19 0 40 8l18 -64q-35 -14 -77 -14zM23 815l-29 53l199 121l34 -62z" glyph-name="lacute" horiz-adv-x="318" unicode="ĺ"/><glyph d="M92 0v683l88 14v-626h316l-10 -71h-394zM254 -254q42 25 46 63l-44 13q-5 17 -5 28q0 23 14.5 37.5t35.5 14.5q25 0 40 -19t15 -53q0 -78 -80 -120z" glyph-name="uni013B" horiz-adv-x="524" unicode="Ļ"/><glyph d="M206 -8q-132 0 -132 159v583l84 12v-597q0 -87 67 -87q19 0 40 8l18 -64q-35 -14 -77 -14zM111 -254q42 25 46 63l-44 13q-5 17 -5 28q0 23 14.5 37.5t35.5 14.5q25 0 40 -19t15 -53q0 -78 -80 -120z" glyph-name="uni013C" horiz-adv-x="318" unicode="ļ"/><glyph d="M92 0v683l88 14v-626h316l-10 -71h-394zM252 546q42 25 46 64l-44 13q-5 17 -5 28q0 23 14.5 37t35.5 14q25 0 40 -19t15 -53q0 -37 -21 -68.5t-59 -51.5z" glyph-name="Lcaron" horiz-adv-x="524" unicode="Ľ"/><glyph d="M206 -8q-132 0 -132 159v583l84 12v-597q0 -87 67 -87q19 0 40 8l18 -64q-35 -14 -77 -14zM227 596q42 25 46 64l-44 13q-5 17 -5 28q0 23 14.5 37t35.5 14q25 0 40 -19t15 -53q0 -37 -21.5 -68.5t-58.5 -51.5z" glyph-name="lcaron" horiz-adv-x="318" unicode="ľ"/><glyph d="M92 0v683l88 14v-626h316l-10 -71h-394zM387 322q-25 0 -41 17t-16 41t16 40.5t41 16.5q26 0 42 -16.5t16 -40.5q0 -25 -16 -41.5t-42 -16.5z" glyph-name="Ldot" horiz-adv-x="524" unicode="Ŀ"/><glyph d="M206 -8q-132 0 -132 159v583l84 12v-597q0 -87 67 -87q19 0 40 8l18 -64q-35 -14 -77 -14zM311 321q-26 0 -42 16.5t-16 40.5t16 40.5t42 16.5t41.5 -16t15.5 -41t-15.5 -41t-41.5 -16z" glyph-name="ldot" horiz-adv-x="387" unicode="ŀ"/><glyph d="M92 0v333l-68 -32l-29 60l97 46v276l88 14v-259l83 39l29 -61l-112 -53v-292h316l-10 -71h-394z" glyph-name="Lslash" horiz-adv-x="524" unicode="Ł"/><glyph d="M270 -8q-132 0 -132 159v216l-69 -33l-29 60l98 47v293l84 12v-277l86 41l29 -61l-115 -54v-246q0 -87 67 -87q19 0 40 8l18 -64q-35 -14 -77 -14z" glyph-name="lslash" horiz-adv-x="395" unicode="ł"/><glyph d="M92 0v690h69l372 -544v537l78 14v-697h-69l-373 546v-546h-77zM273 765l-29 53l199 121l34 -62z" glyph-name="Nacute" horiz-adv-x="703" unicode="Ń"/><glyph d="M407 285q0 67 -28.5 103.5t-82.5 36.5q-61 0 -98 -46t-37 -130v-249h-84v477l76 12v-98q49 104 165 104q79 0 126 -50.5t47 -143.5v-301h-84v285zM197 558l-29 53l199 121l34 -62z" glyph-name="nacute" horiz-adv-x="560" unicode="ń"/><glyph d="M92 0v690h69l372 -544v537l78 14v-697h-69l-373 546v-546h-77zM302 -254q42 25 46 63l-44 13q-5 17 -5 28q0 23 14.5 37.5t35.5 14.5q25 0 40 -19t15 -53q0 -78 -80 -120z" glyph-name="uni0145" horiz-adv-x="703" unicode="Ņ"/><glyph d="M407 285q0 67 -28.5 103.5t-82.5 36.5q-61 0 -98 -46t-37 -130v-249h-84v477l76 12v-98q49 104 165 104q79 0 126 -50.5t47 -143.5v-301h-84v285zM237 -254q42 25 46 63l-44 13q-5 17 -5 28q0 23 14.5 37.5t35.5 14.5q25 0 40 -19t15 -53q0 -78 -80 -120z" glyph-name="uni0146" horiz-adv-x="560" unicode="ņ"/><glyph d="M92 0v690h69l372 -544v537l78 14v-697h-69l-373 546v-546h-77zM367 763l-146 136l37 41l109 -94l109 94l37 -41z" glyph-name="Ncaron" horiz-adv-x="703" unicode="Ň"/><glyph d="M407 285q0 67 -28.5 103.5t-82.5 36.5q-61 0 -98 -46t-37 -130v-249h-84v477l76 12v-98q49 104 165 104q79 0 126 -50.5t47 -143.5v-301h-84v285zM290 556l-146 136l37 41l109 -94l109 94l37 -41z" glyph-name="ncaron" horiz-adv-x="560" unicode="ň"/><glyph d="M407 285q0 67 -28.5 103.5t-82.5 36.5q-61 0 -98 -46t-37 -130v-249h-84v477l76 12v-98q49 104 165 104q79 0 126 -50.5t47 -143.5v-301h-84v285zM80 632q42 25 46 64l-44 13q-5 17 -5 28q0 23 14.5 37t35.5 14q25 0 40 -19t15 -53q0 -37 -21 -68.5t-59 -51.5z" glyph-name="napostrophe" horiz-adv-x="560" unicode="ŉ"/><glyph d="M485 -213q48 91 48 215v10l-364 534v-546h-77v690h69l372 -544v537l78 14v-692q0 -146 -59 -248z" glyph-name="Eng" horiz-adv-x="703" unicode="Ŋ"/><glyph d="M359 -213q48 91 48 216v282q0 67 -28.5 103.5t-82.5 36.5q-61 0 -98 -46t-37 -130v-249h-84v477l76 12v-98q49 104 165 104q79 0 126 -50.5t47 -143.5v-296q0 -148 -60 -251z" glyph-name="eng" horiz-adv-x="560" unicode="ŋ"/><glyph d="M395 -12q-145 0 -238 100.5t-93 256.5t93 256.5t238 100.5t238 -100.5t93 -256.5t-93 -256.5t-238 -100.5zM395 59q111 0 177.5 80.5t66.5 205.5t-66.5 205.5t-177.5 80.5t-177.5 -80.5t-66.5 -205.5t66.5 -205.5t177.5 -80.5zM257 809v64h275l-9 -64h-266z" glyph-name="Omacron" horiz-adv-x="790" unicode="Ō"/><glyph d="M291 -12q-106 0 -172 69.5t-66 184.5q0 114 66 183.5t172 69.5t171.5 -69.5t65.5 -183.5q0 -115 -65.5 -184.5t-171.5 -69.5zM291 58q68 0 110.5 50t42.5 134t-42.5 133.5t-110.5 49.5t-111 -49.5t-43 -133.5t43 -134t111 -50zM153 602v64h275l-9 -64h-266z" glyph-name="omacron" horiz-adv-x="581" unicode="ō"/><glyph d="M395 -12q-145 0 -238 100.5t-93 256.5t93 256.5t238 100.5t238 -100.5t93 -256.5t-93 -256.5t-238 -100.5zM395 59q111 0 177.5 80.5t66.5 205.5t-66.5 205.5t-177.5 80.5t-177.5 -80.5t-66.5 -205.5t66.5 -205.5t177.5 -80.5zM395 770q-63 0 -100.5 42t-35.5 111l57 3 q0 -46 20.5 -72.5t58.5 -26.5t58.5 26.5t20.5 72.5l56 -3q3 -69 -34.5 -111t-100.5 -42z" glyph-name="Obreve" horiz-adv-x="790" unicode="Ŏ"/><glyph d="M291 -12q-106 0 -172 69.5t-66 184.5q0 114 66 183.5t172 69.5t171.5 -69.5t65.5 -183.5q0 -115 -65.5 -184.5t-171.5 -69.5zM291 58q68 0 110.5 50t42.5 134t-42.5 133.5t-110.5 49.5t-111 -49.5t-43 -133.5t43 -134t111 -50zM291 563q-63 0 -100.5 42t-35.5 111l57 3 q0 -46 20.5 -72.5t58.5 -26.5t58.5 26.5t20.5 72.5l56 -3q3 -69 -34.5 -111t-100.5 -42z" glyph-name="obreve" horiz-adv-x="581" unicode="ŏ"/><glyph d="M395 -12q-145 0 -238 100.5t-93 256.5t93 256.5t238 100.5t238 -100.5t93 -256.5t-93 -256.5t-238 -100.5zM395 59q111 0 177.5 80.5t66.5 205.5t-66.5 205.5t-177.5 80.5t-177.5 -80.5t-66.5 -205.5t66.5 -205.5t177.5 -80.5zM503 781h-72l91 168l65 -27zM344 781h-72 l89 165l68 -24z" glyph-name="Ohungarumlaut" horiz-adv-x="790" unicode="Ő"/><glyph d="M291 -12q-106 0 -172 69.5t-66 184.5q0 114 66 183.5t172 69.5t171.5 -69.5t65.5 -183.5q0 -115 -65.5 -184.5t-171.5 -69.5zM291 58q68 0 110.5 50t42.5 134t-42.5 133.5t-110.5 49.5t-111 -49.5t-43 -133.5t43 -134t111 -50zM399 574h-72l91 168l65 -27zM240 574h-72 l89 165l68 -24z" glyph-name="ohungarumlaut" horiz-adv-x="581" unicode="ő"/><glyph d="M453 -12q-188 0 -288.5 99t-100.5 258t100.5 258t288.5 99q75 0 156 -12h366l-10 -71h-325v-233h285v-72h-285v-243h337l-9 -71h-359q-81 -12 -156 -12zM151 345q0 -128 75.5 -207.5t221.5 -79.5q50 0 104 6v562q-54 6 -104 6q-146 0 -221.5 -79.5t-75.5 -207.5z" glyph-name="OE" horiz-adv-x="1031" unicode="Œ"/><glyph d="M279 -12q-98 0 -162 70t-64 184q0 113 64 183t162 70q67 0 116.5 -35t73.5 -97q26 63 80 97.5t126 34.5q98 0 156 -60.5t58 -160.5q0 -32 -6 -54h-352q6 -73 51 -119t122 -46q73 0 136 44l27 -58q-75 -53 -172 -53q-81 0 -138.5 36t-86.5 99q-24 -64 -74 -99.5 t-117 -35.5zM292 56q69 0 112 50.5t43 135.5q0 84 -43 134t-112 50t-112 -50t-43 -134q0 -85 43 -135.5t112 -50.5zM532 280h282q0 64 -36.5 106.5t-100.5 42.5q-59 0 -97.5 -39t-47.5 -110z" glyph-name="oe" horiz-adv-x="940" unicode="œ"/><glyph d="M274 266q-48 0 -98 6v-272h-84v685q98 17 182 17q146 0 218.5 -57.5t72.5 -160.5q0 -159 -163 -203l64 -107q35 -58 66.5 -87t77.5 -29q23 0 45 8l7 -67q-33 -11 -68 -11q-71 0 -117.5 40t-87.5 112l-72 127zM210 765l-29 53l199 121l34 -62zM176 340q72 -6 103 -6 q97 0 147.5 38.5t50.5 111.5t-50.5 111.5t-147.5 38.5q-31 0 -103 -6v-288z" glyph-name="Racute" horiz-adv-x="709" unicode="Ŕ"/><glyph d="M77 0v479l76 9v-104q36 111 144 111q27 0 59 -9v-81q-33 10 -60 10q-64 0 -99.5 -46t-35.5 -124v-245h-84zM131 558l-29 53l199 121l34 -62z" glyph-name="racute" horiz-adv-x="396" unicode="ŕ"/><glyph d="M274 266q-48 0 -98 6v-272h-84v685q98 17 182 17q146 0 218.5 -57.5t72.5 -160.5q0 -159 -163 -203l64 -107q35 -58 66.5 -87t77.5 -29q23 0 45 8l7 -67q-33 -11 -68 -11q-71 0 -117.5 40t-87.5 112l-72 127zM294 -254q42 25 46 63l-44 13q-5 17 -5 28q0 23 14.5 37.5 t35.5 14.5q25 0 40 -19t15 -53q0 -78 -80 -120zM176 340q72 -6 103 -6q97 0 147.5 38.5t50.5 111.5t-50.5 111.5t-147.5 38.5q-31 0 -103 -6v-288z" glyph-name="uni0156" horiz-adv-x="709" unicode="Ŗ"/><glyph d="M77 0v479l76 9v-104q36 111 144 111q27 0 59 -9v-81q-33 10 -60 10q-64 0 -99.5 -46t-35.5 -124v-245h-84zM69 -254q42 25 46 63l-44 13q-5 17 -5 28q0 23 14.5 37.5t35.5 14.5q25 0 40 -19t15 -53q0 -78 -80 -120z" glyph-name="uni0157" horiz-adv-x="396" unicode="ŗ"/><glyph d="M274 266q-48 0 -98 6v-272h-84v685q98 17 182 17q146 0 218.5 -57.5t72.5 -160.5q0 -159 -163 -203l64 -107q35 -58 66.5 -87t77.5 -29q23 0 45 8l7 -67q-33 -11 -68 -11q-71 0 -117.5 40t-87.5 112l-72 127zM303 763l-146 136l37 41l109 -94l109 94l37 -41zM176 340 q72 -6 103 -6q97 0 147.5 38.5t50.5 111.5t-50.5 111.5t-147.5 38.5q-31 0 -103 -6v-288z" glyph-name="Rcaron" horiz-adv-x="709" unicode="Ř"/><glyph d="M77 0v479l76 9v-104q36 111 144 111q27 0 59 -9v-81q-33 10 -60 10q-64 0 -99.5 -46t-35.5 -124v-245h-84zM224 556l-146 136l37 41l109 -94l109 94l37 -41z" glyph-name="rcaron" horiz-adv-x="396" unicode="ř"/><glyph d="M307 -12q-148 0 -257 109l42 51q97 -93 211 -93q74 0 117 37t43 99q0 55 -33.5 82.5t-93.5 43.5l-70 18q-166 43 -166 182q0 92 65 138.5t167 46.5q128 0 218 -68l-37 -55q-79 56 -178 56q-69 0 -110 -28t-41 -84q0 -47 29 -72t91 -42l69 -17q78 -20 126 -63.5t48 -128.5 q0 -100 -67.5 -156t-172.5 -56zM242 765l-29 53l199 121l34 -62z" glyph-name="Sacute" horiz-adv-x="615" unicode="Ś"/><glyph d="M236 -12q-113 0 -196 78l40 52q70 -62 156 -62q47 0 76 22.5t29 59.5q0 33 -21.5 49.5t-61.5 26.5l-47 12q-67 16 -99.5 47t-32.5 83q0 69 49.5 104t128.5 35q97 0 168 -49l-36 -54q-58 37 -132 37q-95 0 -95 -67q0 -50 78 -70l53 -13q60 -13 95.5 -43.5t35.5 -91.5 q0 -74 -53 -115t-135 -41zM160 558l-29 53l199 121l34 -62z" glyph-name="sacute" horiz-adv-x="479" unicode="ś"/><glyph d="M307 -12q-148 0 -257 109l42 51q97 -93 211 -93q74 0 117 37t43 99q0 55 -33.5 82.5t-93.5 43.5l-70 18q-166 43 -166 182q0 92 65 138.5t167 46.5q128 0 218 -68l-37 -55q-79 56 -178 56q-69 0 -110 -28t-41 -84q0 -47 29 -72t91 -42l69 -17q78 -20 126 -63.5t48 -128.5 q0 -100 -67.5 -156t-172.5 -56zM226 766l-37 42l146 136l146 -136l-37 -42l-109 91z" glyph-name="Scircumflex" horiz-adv-x="615" unicode="Ŝ"/><glyph d="M236 -12q-113 0 -196 78l40 52q70 -62 156 -62q47 0 76 22.5t29 59.5q0 33 -21.5 49.5t-61.5 26.5l-47 12q-67 16 -99.5 47t-32.5 83q0 69 49.5 104t128.5 35q97 0 168 -49l-36 -54q-58 37 -132 37q-95 0 -95 -67q0 -50 78 -70l53 -13q60 -13 95.5 -43.5t35.5 -91.5 q0 -74 -53 -115t-135 -41zM145 559l-37 42l146 136l146 -136l-37 -42l-109 91z" glyph-name="scircumflex" horiz-adv-x="479" unicode="ŝ"/><glyph d="M297 -224q-40 0 -76 15l12 42q33 -11 58 -11q27 0 45.5 12t18.5 34q0 45 -93 44l21 77q-133 8 -233 108l42 51q97 -93 211 -93q74 0 117 37t43 99q0 55 -33.5 82.5t-93.5 43.5l-70 18q-166 43 -166 182q0 92 65 138.5t167 46.5q128 0 218 -68l-37 -55q-79 56 -178 56 q-69 0 -110 -28t-41 -84q0 -47 29 -72t91 -42l69 -17q78 -20 126 -63.5t48 -128.5q0 -96 -62.5 -151.5t-160.5 -60.5l-12 -43q99 -4 99 -79q0 -40 -30.5 -65t-83.5 -25z" glyph-name="Scedilla" horiz-adv-x="615" unicode="Ş"/><glyph d="M227 -224q-40 0 -76 15l12 42q33 -11 58 -11q27 0 45.5 12t18.5 34q0 45 -93 44l21 77q-99 8 -173 77l40 52q70 -62 156 -62q47 0 76 22.5t29 59.5q0 33 -21.5 49.5t-61.5 26.5l-47 12q-67 16 -99.5 47t-32.5 83q0 69 49.5 104t128.5 35q97 0 168 -49l-36 -54 q-58 37 -132 37q-95 0 -95 -67q0 -50 78 -70l53 -13q60 -13 95.5 -43.5t35.5 -91.5q0 -70 -47.5 -110.5t-122.5 -44.5l-12 -44q99 -4 99 -79q0 -40 -30.5 -65t-83.5 -25z" glyph-name="scedilla" horiz-adv-x="479" unicode="ş"/><glyph d="M307 -12q-148 0 -257 109l42 51q97 -93 211 -93q74 0 117 37t43 99q0 55 -33.5 82.5t-93.5 43.5l-70 18q-166 43 -166 182q0 92 65 138.5t167 46.5q128 0 218 -68l-37 -55q-79 56 -178 56q-69 0 -110 -28t-41 -84q0 -47 29 -72t91 -42l69 -17q78 -20 126 -63.5t48 -128.5 q0 -100 -67.5 -156t-172.5 -56zM335 763l-146 136l37 41l109 -94l109 94l37 -41z" glyph-name="Scaron" horiz-adv-x="615" unicode="Š"/><glyph d="M236 -12q-113 0 -196 78l40 52q70 -62 156 -62q47 0 76 22.5t29 59.5q0 33 -21.5 49.5t-61.5 26.5l-47 12q-67 16 -99.5 47t-32.5 83q0 69 49.5 104t128.5 35q97 0 168 -49l-36 -54q-58 37 -132 37q-95 0 -95 -67q0 -50 78 -70l53 -13q60 -13 95.5 -43.5t35.5 -91.5 q0 -74 -53 -115t-135 -41zM254 556l-146 136l37 41l109 -94l109 94l37 -41z" glyph-name="scaron" horiz-adv-x="479" unicode="š"/><glyph d="M279 0v619h-228v71h549l-10 -71h-223v-619h-23l-15 -55q99 -4 99 -79q0 -40 -30.5 -65t-83.5 -25q-40 0 -76 15l12 42q33 -11 58 -11q27 0 45.5 12t18.5 34q0 45 -93 44l24 88h-24z" glyph-name="uni0162" horiz-adv-x="644" unicode="Ţ"/><glyph d="M272 -12q-28 0 -53 6l-13 -49q43 -1 71 -20t28 -59t-30.5 -65t-83.5 -25q-40 0 -76 15l12 42q33 -11 58 -11q27 0 45.5 12t18.5 34q0 45 -93 44l27 98q-62 39 -62 139v266h-83v68h83v115l84 15v-130h139l-9 -68h-130v-247q0 -110 85 -110q28 0 62 14l19 -63 q-48 -21 -99 -21z" glyph-name="uni0163" horiz-adv-x="408" unicode="ţ"/><glyph d="M279 0v619h-228v71h549l-10 -71h-223v-619h-88zM325 763l-146 136l37 41l109 -94l109 94l37 -41z" glyph-name="Tcaron" horiz-adv-x="644" unicode="Ť"/><glyph d="M272 -12q-68 0 -109.5 37.5t-41.5 123.5v266h-83v68h83v115l84 15v-130h139l-9 -68h-130v-247q0 -110 85 -110q28 0 62 14l19 -63q-48 -21 -99 -21zM274 608q42 25 46 64l-44 13q-5 17 -5 28q0 23 14.5 37t35.5 14q25 0 40 -19t15 -53q0 -37 -21 -68.5t-59 -51.5z" glyph-name="tcaron" horiz-adv-x="408" unicode="ť"/><glyph d="M279 0v289h-175v68h175v262h-228v71h549l-10 -71h-223v-262h177l-9 -68h-168v-289h-88z" glyph-name="Tbar" horiz-adv-x="644" unicode="Ŧ"/><glyph d="M275 -9q-68 0 -109 38t-41 124v95h-82v68h82v99h-83v68h83v114l84 16v-130h139l-9 -68h-130v-99h140l-10 -68h-130v-76q0 -110 85 -110q32 0 62 14l19 -63q-50 -22 -100 -22z" glyph-name="tbar" horiz-adv-x="411" unicode="ŧ"/><glyph d="M344 -12q-119 0 -190 68t-71 193v434l88 14v-443q0 -90 47 -141.5t126 -51.5q80 0 127 51.5t47 141.5v429l88 14v-448q0 -125 -71 -193t-191 -68zM412 802q-32 0 -66.5 30t-53.5 30q-38 0 -45 -56l-55 5q11 114 93 114q32 0 66.5 -30t53.5 -30q38 0 46 56l54 -5 q-11 -114 -93 -114z" glyph-name="Utilde" horiz-adv-x="689" unicode="Ũ"/><glyph d="M248 -12q-80 0 -129.5 49t-49.5 141v301l84 9v-295q0 -65 31 -100t86 -35q61 0 95 44t34 128v249l84 9v-488h-69l-4 89q-45 -101 -162 -101zM340 595q-32 0 -66.5 30t-53.5 30q-38 0 -45 -56l-55 5q11 114 93 114q32 0 66.5 -30t53.5 -30q38 0 46 56l54 -5 q-11 -114 -93 -114z" glyph-name="utilde" horiz-adv-x="561" unicode="ũ"/><glyph d="M344 -12q-119 0 -190 68t-71 193v434l88 14v-443q0 -90 47 -141.5t126 -51.5q80 0 127 51.5t47 141.5v429l88 14v-448q0 -125 -71 -193t-191 -68zM211 809v64h275l-9 -64h-266z" glyph-name="Umacron" horiz-adv-x="689" unicode="Ū"/><glyph d="M248 -12q-80 0 -129.5 49t-49.5 141v301l84 9v-295q0 -65 31 -100t86 -35q61 0 95 44t34 128v249l84 9v-488h-69l-4 89q-45 -101 -162 -101zM139 602v64h275l-9 -64h-266z" glyph-name="umacron" horiz-adv-x="561" unicode="ū"/><glyph d="M344 -12q-119 0 -190 68t-71 193v434l88 14v-443q0 -90 47 -141.5t126 -51.5q80 0 127 51.5t47 141.5v429l88 14v-448q0 -125 -71 -193t-191 -68zM349 770q-63 0 -100.5 42t-35.5 111l57 3q0 -46 20.5 -72.5t58.5 -26.5t58.5 26.5t20.5 72.5l56 -3q3 -69 -34.5 -111 t-100.5 -42z" glyph-name="Ubreve" horiz-adv-x="689" unicode="Ŭ"/><glyph d="M248 -12q-80 0 -129.5 49t-49.5 141v301l84 9v-295q0 -65 31 -100t86 -35q61 0 95 44t34 128v249l84 9v-488h-69l-4 89q-45 -101 -162 -101zM276 563q-63 0 -100.5 42t-35.5 111l57 3q0 -46 20.5 -72.5t58.5 -26.5t58.5 26.5t20.5 72.5l56 -3q3 -69 -34.5 -111 t-100.5 -42z" glyph-name="ubreve" horiz-adv-x="561" unicode="ŭ"/><glyph d="M344 -12q-119 0 -190 68t-71 193v434l88 14v-443q0 -90 47 -141.5t126 -51.5q80 0 127 51.5t47 141.5v429l88 14v-448q0 -125 -71 -193t-191 -68zM348 754q-43 0 -72 28t-29 70q0 41 29 69t72 28q44 0 72.5 -27.5t28.5 -69.5t-28.5 -70t-72.5 -28zM348 796 q24 0 39.5 15.5t15.5 40.5q0 24 -15.5 39.5t-39.5 15.5t-39 -15.5t-15 -39.5q0 -25 15 -40.5t39 -15.5z" glyph-name="Uring" horiz-adv-x="689" unicode="Ů"/><glyph d="M248 -12q-80 0 -129.5 49t-49.5 141v301l84 9v-295q0 -65 31 -100t86 -35q61 0 95 44t34 128v249l84 9v-488h-69l-4 89q-45 -101 -162 -101zM276 547q-43 0 -72 28t-29 70q0 41 29 69t72 28q44 0 72.5 -27.5t28.5 -69.5t-28.5 -70t-72.5 -28zM276 589q24 0 39.5 15.5 t15.5 40.5q0 24 -15.5 39.5t-39.5 15.5t-39 -15.5t-15 -39.5q0 -25 15 -40.5t39 -15.5z" glyph-name="uring" horiz-adv-x="561" unicode="ů"/><glyph d="M344 -12q-119 0 -190 68t-71 193v434l88 14v-443q0 -90 47 -141.5t126 -51.5q80 0 127 51.5t47 141.5v429l88 14v-448q0 -125 -71 -193t-191 -68zM457 781h-72l91 168l65 -27zM298 781h-72l89 165l68 -24z" glyph-name="Uhungarumlaut" horiz-adv-x="689" unicode="Ű"/><glyph d="M248 -12q-80 0 -129.5 49t-49.5 141v301l84 9v-295q0 -65 31 -100t86 -35q61 0 95 44t34 128v249l84 9v-488h-69l-4 89q-45 -101 -162 -101zM385 574h-72l91 168l65 -27zM226 574h-72l89 165l68 -24z" glyph-name="uhungarumlaut" horiz-adv-x="561" unicode="ű"/><glyph d="M344 -12q-119 0 -190 68t-71 193v434l88 14v-443q0 -90 47 -141.5t126 -51.5q80 0 127 51.5t47 141.5v429l88 14v-448q0 -98 -45 -162t-125 -87q-93 -46 -93 -112q0 -26 16 -42t42 -16q19 0 36 7l14 -51q-32 -13 -65 -13q-49 0 -80 27t-31 73q0 72 79 115h-10z" glyph-name="Uogonek" horiz-adv-x="689" unicode="Ų"/><glyph d="M248 -12q-80 0 -129.5 49t-49.5 141v301l84 9v-295q0 -65 31 -100t86 -35q61 0 95 44t34 128v249l84 9v-488h1q-93 -46 -93 -112q0 -26 16 -42t42 -16q19 0 36 7l14 -51q-32 -13 -65 -13q-49 0 -80 27t-31 73q0 83 104 127h-13l-4 89q-45 -101 -162 -101z" glyph-name="uogonek" horiz-adv-x="561" unicode="ų"/><glyph d="M262 0l-211 685l79 13l172 -559l180 551h73l181 -551l172 559l79 -13l-210 -685h-72l-186 562l-185 -562h-72zM410 766l-37 42l146 136l146 -136l-37 -42l-109 91z" glyph-name="Wcircumflex" horiz-adv-x="1038" unicode="Ŵ"/><glyph d="M194 0l-157 477l78 13l121 -376l115 369h87l115 -369l122 376l77 -13l-156 -477h-77l-124 383l-124 -383h-77zM286 559l-37 42l146 136l146 -136l-37 -42l-109 91z" glyph-name="wcircumflex" horiz-adv-x="790" unicode="ŵ"/><glyph d="M307 0v293l-264 391l91 12l217 -324l217 324l90 -12l-263 -391v-293h-88zM241 766l-37 42l146 136l146 -136l-37 -42l-109 91z" glyph-name="Ycircumflex" horiz-adv-x="702" unicode="Ŷ"/><glyph d="M256 -237q-101 0 -178 63l30 59q71 -54 142 -54q149 0 149 153v85q-49 -81 -151 -81q-80 0 -129.5 49t-49.5 141v301l84 9v-295q0 -65 31 -100t86 -35q61 0 95 44t34 128v249l84 9v-504q0 -101 -62 -161t-165 -60zM173 559l-37 42l146 136l146 -136l-37 -42l-109 91z" glyph-name="ycircumflex" horiz-adv-x="561" unicode="ŷ"/><glyph d="M307 0v293l-264 391l91 12l217 -324l217 324l90 -12l-263 -391v-293h-88zM257 799q-21 0 -35 14t-14 35t14 35t35 14t35 -14t14 -35t-14 -35t-35 -14zM443 799q-21 0 -35 14t-14 35t14 35t35 14q22 0 35.5 -14t13.5 -35t-13.5 -35t-35.5 -14z" glyph-name="Ydieresis" horiz-adv-x="702" unicode="Ÿ"/><glyph d="M56 0v68l406 551h-393v71h494v-68l-407 -551h424l-9 -71h-515zM222 765l-29 53l199 121l34 -62z" glyph-name="Zacute" horiz-adv-x="635" unicode="Ź"/><glyph d="M44 0v68l278 347h-266v68h359v-68l-278 -347h295l-10 -68h-378zM142 558l-29 53l199 121l34 -62z" glyph-name="zacute" horiz-adv-x="472" unicode="ź"/><glyph d="M56 0v68l406 551h-393v71h494v-68l-407 -551h424l-9 -71h-515zM315 795q-25 0 -40.5 16.5t-15.5 40.5t15.5 40t40.5 16t40.5 -16t15.5 -40t-15.5 -40.5t-40.5 -16.5z" glyph-name="Zdotaccent" horiz-adv-x="635" unicode="Ż"/><glyph d="M44 0v68l278 347h-266v68h359v-68l-278 -347h295l-10 -68h-378zM235 588q-25 0 -40.5 16.5t-15.5 40.5t15.5 40t40.5 16t40.5 -16t15.5 -40t-15.5 -40.5t-40.5 -16.5z" glyph-name="zdotaccent" horiz-adv-x="472" unicode="ż"/><glyph d="M56 0v68l406 551h-393v71h494v-68l-407 -551h424l-9 -71h-515zM315 763l-146 136l37 41l109 -94l109 94l37 -41z" glyph-name="Zcaron" horiz-adv-x="635" unicode="Ž"/><glyph d="M44 0v68l278 347h-266v68h359v-68l-278 -347h295l-10 -68h-378zM235 556l-146 136l37 41l109 -94l109 94l37 -41z" glyph-name="zcaron" horiz-adv-x="472" unicode="ž"/><glyph d="M356 -12q-140 0 -219.5 85t-79.5 221q0 36 9 76h519q-8 117 -75 189.5t-184 72.5q-116 0 -210 -68l-28 60q108 78 246 78q162 0 249 -99t87 -260q0 -165 -85 -260t-229 -95zM137 285q0 -98 59.5 -163.5t160.5 -65.5q94 0 155.5 64.5t71.5 178.5h-447v-14z" glyph-name="uni018F" horiz-adv-x="735" unicode="Ə"/><glyph d="M231 543q29 209 227 209q59 0 108 -21l-31 -64q-34 15 -76 15q-125 0 -145 -142l-20 -146h200l-18 -68h-192l-76 -550h-84l77 550h-144l8 68h145z" glyph-name="florin" horiz-adv-x="620" unicode="ƒ"/><glyph d="M44 -213q48 91 48 215v688h69l372 -544v537l78 14v-697h-69l-373 546v-541q0 -146 -59 -248z" glyph-name="uni019D" horiz-adv-x="703" unicode="Ɲ"/><glyph d="M405 -9q-152 0 -246.5 98t-94.5 256t97 257.5t256 99.5q123 0 215 -57l-31 -63q-83 50 -178 50q-122 0 -197.5 -80t-75.5 -207t71.5 -205t187.5 -78q86 0 155 41v181h-202l9 68h276v-290q-108 -71 -242 -71zM400 763l-146 136l37 41l109 -94l109 94l37 -41z" glyph-name="Gcaron" horiz-adv-x="716" unicode="Ǧ"/><glyph d="M279 -236q-99 0 -199 50l29 64q88 -44 165 -44q86 0 130 48.5t44 136.5v80q-56 -104 -176 -104q-97 0 -158 69t-61 181t61 181t158 69q134 0 187 -127l3 115h70v-467q0 -119 -66.5 -185.5t-186.5 -66.5zM291 62q70 0 113.5 50t43.5 133t-43.5 133t-113.5 50t-113 -50 t-43 -133q0 -84 43 -133.5t113 -49.5zM305 556l-146 136l37 41l109 -94l109 94l37 -41z" glyph-name="gcaron" horiz-adv-x="609" unicode="ǧ"/><glyph d="M395 -12q-145 0 -238 100.5t-93 256.5t93 256.5t238 100.5t238 -100.5t93 -256.5q0 -129 -65 -222.5t-174 -122.5q-93 -46 -93 -112q0 -26 16 -42t42 -16q19 0 36 7l14 -51q-32 -13 -65 -13q-49 0 -80 27t-31 73q0 72 79 115h-10zM395 59q111 0 177.5 80.5t66.5 205.5 t-66.5 205.5t-177.5 80.5t-177.5 -80.5t-66.5 -205.5t66.5 -205.5t177.5 -80.5z" glyph-name="uni01EA" horiz-adv-x="790" unicode="Ǫ"/><glyph d="M291 58q68 0 110.5 50t42.5 134t-42.5 133.5t-110.5 49.5t-111 -49.5t-43 -133.5t43 -134t111 -50zM321 -227q-49 0 -80 27t-31 73q0 72 79 115q-106 1 -171 70.5t-65 183.5t66 183.5t172 69.5t171.5 -69.5t65.5 -183.5q0 -91 -42 -154.5t-115 -87.5q-93 -46 -93 -112 q0 -26 16 -42t42 -16q19 0 36 7l14 -51q-32 -13 -65 -13z" glyph-name="uni01EB" horiz-adv-x="581" unicode="ǫ"/><glyph d="M137 -7l-87 14l284 683h68l282 -683l-83 -14l-76 186h-312zM361 750q-43 0 -72 28.5t-29 69.5t29 69.5t72 28.5q37 0 64 -21l97 61l31 -57l-95 -54q4 -11 4 -27q0 -41 -29 -69.5t-72 -28.5zM361 792q24 0 39 16t15 40t-15 39.5t-39 15.5t-39 -15.5t-15 -39.5t15 -40 t39 -16zM240 247h257l-129 313z" glyph-name="Aringacute" horiz-adv-x="734" unicode="Ǻ"/><glyph d="M467 -12q-43 0 -71 21.5t-32 64.5q-54 -86 -163 -86q-68 0 -113 37t-45 105q0 73 55 111.5t153 38.5q58 0 115 -17l1 43q1 59 -36 89t-96 30q-71 0 -128 -43l-37 58q68 55 171 55q95 0 150.5 -45t54.5 -135l-2 -196q-2 -57 45 -57q15 0 30 5v-71q-26 -8 -52 -8zM256 543 q-43 0 -72 28.5t-29 69.5t29 69.5t72 28.5q37 0 64 -21l97 61l31 -57l-95 -54q4 -11 4 -27q0 -41 -29 -69.5t-72 -28.5zM256 585q24 0 39 16t15 40t-15 39.5t-39 15.5t-39 -15.5t-15 -39.5t15 -40t39 -16zM128 136q0 -39 28.5 -61t69.5 -22q57 0 95.5 42t42.5 115 q-51 17 -102 17q-62 0 -98 -23.5t-36 -67.5z" glyph-name="aringacute" horiz-adv-x="557" unicode="ǻ"/><glyph d="M123 -6l-80 12l368 684h524l-10 -71h-292v-233h252v-72h-252v-243h305l-10 -71h-383v199h-311zM574 765l-29 53l199 121l34 -62zM271 267h274v355h-82z" glyph-name="AEacute" horiz-adv-x="991" unicode="Ǽ"/><glyph d="M617 -12q-156 0 -219 123q-27 -59 -80.5 -91t-116.5 -32q-68 0 -113 37t-45 105q0 73 55 111.5t153 38.5q58 0 115 -17l1 43q1 59 -36 89t-96 30q-71 0 -128 -43l-37 58q68 55 171 55q132 0 178 -84q62 84 178 84q98 0 156 -60.5t58 -160.5q0 -24 -6 -54h-353 q6 -73 51 -119t122 -46q74 0 137 44l26 -58q-74 -53 -171 -53zM340 558l-29 53l199 121l34 -62zM128 136q0 -39 28.5 -61t69.5 -22q57 0 95.5 42t42.5 115q-51 17 -102 17q-62 0 -98 -23.5t-36 -67.5zM453 280h283q0 64 -37 106.5t-100 42.5q-59 0 -98 -39t-48 -110z" glyph-name="aeacute" horiz-adv-x="861" unicode="ǽ"/><glyph d="M395 -12q-98 0 -174 48l-65 -93l-57 42l66 95q-101 101 -101 265q0 156 93 256.5t238 100.5q96 0 174 -47l64 91l57 -42l-66 -93q102 -102 102 -266q0 -156 -93 -256.5t-238 -100.5zM395 59q111 0 177.5 80.5t66.5 205.5q0 119 -61 199l-314 -447q59 -38 131 -38z M302 765l-29 53l199 121l34 -62zM151 345q0 -119 61 -199l313 447q-57 38 -130 38q-111 0 -177.5 -80.5t-66.5 -205.5z" glyph-name="Oslashacute" horiz-adv-x="790" unicode="Ǿ"/><glyph d="M291 -12q-61 0 -111 25l-50 -71l-67 48l51 73q-61 69 -61 179q0 114 66 183.5t172 69.5q61 0 111 -24l49 70l67 -48l-51 -72q61 -69 61 -179q0 -115 -65.5 -184.5t-171.5 -69.5zM291 58q68 0 110.5 50t42.5 134q0 65 -26 109l-195 -277q29 -16 68 -16zM197 558l-29 53 l199 121l34 -62zM137 242q0 -66 26 -110l195 277q-29 16 -67 16q-68 0 -111 -49.5t-43 -133.5z" glyph-name="oslashacute" horiz-adv-x="581" unicode="ǿ"/><glyph d="M307 -12q-148 0 -257 109l42 51q97 -93 211 -93q74 0 117 37t43 99q0 55 -33.5 82.5t-93.5 43.5l-70 18q-166 43 -166 182q0 92 65 138.5t167 46.5q128 0 218 -68l-37 -55q-79 56 -178 56q-69 0 -110 -28t-41 -84q0 -47 29 -72t91 -42l69 -17q78 -20 126 -63.5t48 -128.5 q0 -100 -67.5 -156t-172.5 -56zM257 -254q42 25 46 63l-44 13q-5 17 -5 28q0 23 14.5 37.5t35.5 14.5q25 0 40 -19t15 -53q0 -78 -80 -120z" glyph-name="uni0218" horiz-adv-x="615" unicode="Ș"/><glyph d="M236 -12q-113 0 -196 78l40 52q70 -62 156 -62q47 0 76 22.5t29 59.5q0 33 -21.5 49.5t-61.5 26.5l-47 12q-67 16 -99.5 47t-32.5 83q0 69 49.5 104t128.5 35q97 0 168 -49l-36 -54q-58 37 -132 37q-95 0 -95 -67q0 -50 78 -70l53 -13q60 -13 95.5 -43.5t35.5 -91.5 q0 -74 -53 -115t-135 -41zM187 -254q42 25 46 63l-44 13q-5 17 -5 28q0 23 14.5 37.5t35.5 14.5q25 0 40 -19t15 -53q0 -78 -80 -120z" glyph-name="uni0219" horiz-adv-x="479" unicode="ș"/><glyph d="M279 0v619h-228v71h549l-10 -71h-223v-619h-88zM274 -254q42 25 46 63l-44 13q-5 17 -5 28q0 23 14.5 37.5t35.5 14.5q25 0 40 -19t15 -53q0 -78 -80 -120z" glyph-name="uni021A" horiz-adv-x="644" unicode="Ț"/><glyph d="M272 -12q-68 0 -109.5 37.5t-41.5 123.5v266h-83v68h83v115l84 15v-130h139l-9 -68h-130v-247q0 -110 85 -110q28 0 62 14l19 -63q-48 -21 -99 -21zM150 -254q42 25 46 63l-44 13q-5 17 -5 28q0 23 14.5 37.5t35.5 14.5q25 0 40 -19t15 -53q0 -78 -80 -120z" glyph-name="uni021B" horiz-adv-x="408" unicode="ț"/><glyph d="M307 0v293l-264 391l91 12l217 -324l217 324l90 -12l-263 -391v-293h-88zM212 809v64h275l-9 -64h-266z" glyph-name="uni0232" horiz-adv-x="702" unicode="Ȳ"/><glyph d="M256 -237q-101 0 -178 63l30 59q71 -54 142 -54q149 0 149 153v85q-49 -81 -151 -81q-80 0 -129.5 49t-49.5 141v301l84 9v-295q0 -65 31 -100t86 -35q61 0 95 44t34 128v249l84 9v-504q0 -101 -62 -161t-165 -60zM144 602v64h275l-9 -64h-266z" glyph-name="uni0233" horiz-adv-x="561" unicode="ȳ"/><glyph d="M28 -213q49 93 49 216v474l84 12v-484q0 -145 -60 -251z" glyph-name="uni0237" horiz-adv-x="238" unicode="ȷ"/><glyph d="M245 495q116 0 182 -70.5t66 -183.5q0 -116 -63 -184.5t-165 -68.5q-98 0 -156 60.5t-58 160.5q0 31 6 54h352q-6 73 -51 119t-122 46q-73 0 -136 -44l-27 58q75 53 172 53zM126 203q0 -64 36.5 -106.5t100.5 -42.5q59 0 97.5 39t47.5 110h-282z" glyph-name="uni0259" horiz-adv-x="546" unicode="ə"/><glyph d="M29 -213q48 91 48 216v474l76 12v-98q49 104 165 104q79 0 126 -50.5t47 -143.5v-301h-84v285q0 67 -28.5 103.5t-82.5 36.5q-61 0 -98 -46t-37 -130v-244q0 -148 -60 -251z" glyph-name="uni0272" horiz-adv-x="560" unicode="ɲ"/><glyph d="M137 559l-37 42l146 136l146 -136l-37 -42l-109 91z" glyph-name="circumflex" horiz-adv-x="492" unicode="ˆ"/><glyph d="M246 556l-146 136l37 41l109 -94l109 94l37 -41z" glyph-name="caron" horiz-adv-x="492" unicode="ˇ"/><glyph d="M236 563q-63 0 -100.5 42t-35.5 111l57 3q0 -46 20.5 -72.5t58.5 -26.5t58.5 26.5t20.5 72.5l56 -3q3 -69 -34.5 -111t-100.5 -42z" glyph-name="breve" horiz-adv-x="472" unicode="˘"/><glyph d="M156 588q-25 0 -40.5 16.5t-15.5 40.5t15.5 40t40.5 16t40.5 -16t15.5 -40t-15.5 -40.5t-40.5 -16.5z" glyph-name="dotaccent" horiz-adv-x="312" unicode="˙"/><glyph d="M201 547q-43 0 -72 28t-29 70q0 41 29 69t72 28q44 0 72.5 -27.5t28.5 -69.5t-28.5 -70t-72.5 -28zM201 589q24 0 39.5 15.5t15.5 40.5q0 24 -15.5 39.5t-39.5 15.5t-39 -15.5t-15 -39.5q0 -25 15 -40.5t39 -15.5z" glyph-name="ring" horiz-adv-x="402" unicode="˚"/><glyph d="M211 -227q-49 0 -80 27t-31 73q0 93 130 137l31 -10q-93 -46 -93 -112q0 -26 16 -42t42 -16q19 0 36 7l14 -51q-32 -13 -65 -13z" glyph-name="ogonek" horiz-adv-x="376" unicode="˛"/><glyph d="M320 595q-32 0 -66.5 30t-53.5 30q-38 0 -45 -56l-55 5q11 114 93 114q32 0 66.5 -30t53.5 -30q38 0 46 56l54 -5q-11 -114 -93 -114z" glyph-name="tilde" horiz-adv-x="513" unicode="˜"/><glyph d="M332 574h-72l91 168l65 -27zM173 574h-72l89 165l68 -24z" glyph-name="hungarumlaut" horiz-adv-x="517" unicode="˝"/><glyph d="M304 558l-204 112l34 62l199 -121z" glyph-name="gravecomb" horiz-adv-x="0" unicode="̀"/><glyph d="M129 558l-29 53l199 121l34 -62z" glyph-name="acutecomb" horiz-adv-x="0" unicode="́"/><glyph d="M137 559l-37 42l146 136l146 -136l-37 -42l-109 91z" glyph-name="uni0302" horiz-adv-x="0" unicode="̂"/><glyph d="M320 595q-32 0 -66.5 30t-53.5 30q-38 0 -45 -56l-55 5q11 114 93 114q32 0 66.5 -30t53.5 -30q38 0 46 56l54 -5q-11 -114 -93 -114z" glyph-name="tildecomb" horiz-adv-x="0" unicode="̃"/><glyph d="M100 602v64h275l-9 -64h-266z" glyph-name="uni0304" horiz-adv-x="0" unicode="̄"/><glyph d="M236 563q-63 0 -100.5 42t-35.5 111l57 3q0 -46 20.5 -72.5t58.5 -26.5t58.5 26.5t20.5 72.5l56 -3q3 -69 -34.5 -111t-100.5 -42z" glyph-name="uni0306" horiz-adv-x="0" unicode="̆"/><glyph d="M156 588q-25 0 -40.5 16.5t-15.5 40.5t15.5 40t40.5 16t40.5 -16t15.5 -40t-15.5 -40.5t-40.5 -16.5z" glyph-name="uni0307" horiz-adv-x="0" unicode="̇"/><glyph d="M149 592q-21 0 -35 14t-14 35t14 35t35 14t35 -14t14 -35t-14 -35t-35 -14zM335 592q-21 0 -35 14t-14 35t14 35t35 14q22 0 35.5 -14t13.5 -35t-13.5 -35t-35.5 -14z" glyph-name="uni0308" horiz-adv-x="0" unicode="̈"/><glyph d="M201 547q-43 0 -72 28t-29 70q0 41 29 69t72 28q44 0 72.5 -27.5t28.5 -69.5t-28.5 -70t-72.5 -28zM201 589q24 0 39.5 15.5t15.5 40.5q0 24 -15.5 39.5t-39.5 15.5t-39 -15.5t-15 -39.5q0 -25 15 -40.5t39 -15.5z" glyph-name="uni030A" horiz-adv-x="0" unicode="̊"/><glyph d="M332 574h-72l91 168l65 -27zM173 574h-72l89 165l68 -24z" glyph-name="uni030B" horiz-adv-x="0" unicode="̋"/><glyph d="M246 556l-146 136l37 41l109 -94l109 94l37 -41z" glyph-name="uni030C" horiz-adv-x="0" unicode="̌"/><glyph d="M201 717q-41 -25 -45 -64l44 -12q5 -17 5 -28q0 -23 -14.5 -37.5t-35.5 -14.5q-25 0 -40 19t-15 53q0 78 80 120z" glyph-name="uni0312" horiz-adv-x="0" unicode="̒"/><glyph d="M149 -203q-21 0 -35 14t-14 35t14 35t35 14t35 -14t14 -35t-14 -35t-35 -14z" glyph-name="dotbelowcomb" horiz-adv-x="0" unicode="̣"/><glyph d="M103 -254q42 25 46 63l-44 13q-5 17 -5 28q0 23 14.5 37.5t35.5 14.5q25 0 40 -19t15 -53q0 -78 -80 -120z" glyph-name="uni0326" horiz-adv-x="0" unicode="̦"/><glyph d="M176 -224q-40 0 -76 15l12 42q33 -11 58 -11q27 0 45.5 12t18.5 34q0 45 -93 44l28 102l39 -7l-17 -62q99 -4 99 -79q0 -40 -30.5 -65t-83.5 -25z" glyph-name="uni0327" horiz-adv-x="0" unicode="̧"/><glyph d="M211 -227q-49 0 -80 27t-31 73q0 93 130 137l31 -10q-93 -46 -93 -112q0 -26 16 -42t42 -16q19 0 36 7l14 -51q-32 -13 -65 -13z" glyph-name="uni0328" horiz-adv-x="0" unicode="̨"/><glyph d="M100 252v66h348v-66h-348z" glyph-name="uni0335" horiz-adv-x="0" unicode="̵"/><glyph d="M100 506v65h692l-9 -65h-683z" glyph-name="uni0336" horiz-adv-x="0" unicode="̶"/><glyph d="M225 289v11l-96 -45l-29 60l142 68l-1 -12l127 60l29 -61z" glyph-name="uni0337" horiz-adv-x="0" unicode="̷"/><glyph d="M167 -78l-67 48l388 551l67 -48z" glyph-name="uni0338" horiz-adv-x="0" unicode="̸"/><glyph d="M262 0l-211 685l79 13l172 -559l180 551h73l181 -551l172 559l79 -13l-210 -685h-72l-186 562l-185 -562h-72zM594 765l-204 112l34 62l199 -121z" glyph-name="Wgrave" horiz-adv-x="1038" unicode="Ẁ"/><glyph d="M194 0l-157 477l78 13l121 -376l115 369h87l115 -369l122 376l77 -13l-156 -477h-77l-124 383l-124 -383h-77zM470 558l-204 112l34 62l199 -121z" glyph-name="wgrave" horiz-adv-x="790" unicode="ẁ"/><glyph d="M262 0l-211 685l79 13l172 -559l180 551h73l181 -551l172 559l79 -13l-210 -685h-72l-186 562l-185 -562h-72zM426 765l-29 53l199 121l34 -62z" glyph-name="Wacute" horiz-adv-x="1038" unicode="Ẃ"/><glyph d="M194 0l-157 477l78 13l121 -376l115 369h87l115 -369l122 376l77 -13l-156 -477h-77l-124 383l-124 -383h-77zM302 558l-29 53l199 121l34 -62z" glyph-name="wacute" horiz-adv-x="790" unicode="ẃ"/><glyph d="M262 0l-211 685l79 13l172 -559l180 551h73l181 -551l172 559l79 -13l-210 -685h-72l-186 562l-185 -562h-72zM426 799q-21 0 -35 14t-14 35t14 35t35 14t35 -14t14 -35t-14 -35t-35 -14zM612 799q-21 0 -35 14t-14 35t14 35t35 14q22 0 35.5 -14t13.5 -35t-13.5 -35 t-35.5 -14z" glyph-name="Wdieresis" horiz-adv-x="1038" unicode="Ẅ"/><glyph d="M194 0l-157 477l78 13l121 -376l115 369h87l115 -369l122 376l77 -13l-156 -477h-77l-124 383l-124 -383h-77zM302 592q-21 0 -35 14t-14 35t14 35t35 14t35 -14t14 -35t-14 -35t-35 -14zM488 592q-21 0 -35 14t-14 35t14 35t35 14q22 0 35.5 -14t13.5 -35t-13.5 -35 t-35.5 -14z" glyph-name="wdieresis" horiz-adv-x="790" unicode="ẅ"/><glyph d="M420 -12q-96 0 -176 39l26 65q71 -32 136 -32q77 0 122 43t45 109t-46.5 101t-125.5 35q-44 0 -97 -10v47l215 234h-339v-619h-88v690h519v-68l-199 -213h7q109 0 176 -50t67 -149t-66 -160.5t-176 -61.5z" glyph-name="uni1E9E" horiz-adv-x="720" unicode="ẞ"/><glyph d="M137 -7l-87 14l284 683h68l282 -683l-83 -14l-76 186h-312zM361 -203q-21 0 -35 14t-14 35t14 35t35 14t35 -14t14 -35t-14 -35t-35 -14zM240 247h257l-129 313z" glyph-name="uni1EA0" horiz-adv-x="734" unicode="Ạ"/><glyph d="M467 -12q-43 0 -71 21.5t-32 64.5q-54 -86 -163 -86q-68 0 -113 37t-45 105q0 73 55 111.5t153 38.5q58 0 115 -17l1 43q1 59 -36 89t-96 30q-71 0 -128 -43l-37 58q68 55 171 55q95 0 150.5 -45t54.5 -135l-2 -196q-2 -57 45 -57q15 0 30 5v-71q-26 -8 -52 -8zM278 -203 q-21 0 -35 14t-14 35t14 35t35 14t35 -14t14 -35t-14 -35t-35 -14zM128 136q0 -39 28.5 -61t69.5 -22q57 0 95.5 42t42.5 115q-51 17 -102 17q-62 0 -98 -23.5t-36 -67.5z" glyph-name="uni1EA1" horiz-adv-x="557" unicode="ạ"/><glyph d="M92 0v690h422l-9 -71h-325v-233h285v-72h-285v-243h337l-9 -71h-416zM277 -203q-21 0 -35 14t-14 35t14 35t35 14t35 -14t14 -35t-14 -35t-35 -14z" glyph-name="uni1EB8" horiz-adv-x="571" unicode="Ẹ"/><glyph d="M301 -12q-116 0 -182 70.5t-66 183.5q0 116 63 184.5t165 68.5q98 0 156 -60.5t58 -160.5q0 -32 -6 -54h-352q6 -73 51 -119t122 -46q73 0 136 44l27 -58q-75 -53 -172 -53zM273 -203q-21 0 -35 14t-14 35t14 35t35 14t35 -14t14 -35t-14 -35t-35 -14zM138 280h282 q0 64 -36.5 106.5t-100.5 42.5q-59 0 -97.5 -39t-47.5 -110z" glyph-name="uni1EB9" horiz-adv-x="546" unicode="ẹ"/><glyph d="M92 0v690h422l-9 -71h-325v-233h285v-72h-285v-243h337l-9 -71h-416zM373 802q-32 0 -66.5 30t-53.5 30q-38 0 -45 -56l-55 5q11 114 93 114q32 0 66.5 -30t53.5 -30q38 0 46 56l54 -5q-11 -114 -93 -114z" glyph-name="uni1EBC" horiz-adv-x="571" unicode="Ẽ"/><glyph d="M301 -12q-116 0 -182 70.5t-66 183.5q0 116 63 184.5t165 68.5q98 0 156 -60.5t58 -160.5q0 -32 -6 -54h-352q6 -73 51 -119t122 -46q73 0 136 44l27 -58q-75 -53 -172 -53zM346 595q-32 0 -66.5 30t-53.5 30q-38 0 -45 -56l-55 5q11 114 93 114q32 0 66.5 -30t53.5 -30 q38 0 46 56l54 -5q-11 -114 -93 -114zM138 280h282q0 64 -36.5 106.5t-100.5 42.5q-59 0 -97.5 -39t-47.5 -110z" glyph-name="uni1EBD" horiz-adv-x="546" unicode="ẽ"/><glyph d="M92 0v684l84 12v-696h-84zM134 -203q-21 0 -35 14t-14 35t14 35t35 14t35 -14t14 -35t-14 -35t-35 -14z" glyph-name="uni1ECA" horiz-adv-x="268" unicode="Ị"/><glyph d="M77 0v477l84 12v-489h-84zM119 588q-25 0 -40.5 16.5t-15.5 40.5t15.5 40t40.5 16t40.5 -16t15.5 -40t-15.5 -40.5t-40.5 -16.5zM118 -203q-21 0 -35 14t-14 35t14 35t35 14t35 -14t14 -35t-14 -35t-35 -14z" glyph-name="uni1ECB" horiz-adv-x="238" unicode="ị"/><glyph d="M395 -12q-145 0 -238 100.5t-93 256.5t93 256.5t238 100.5t238 -100.5t93 -256.5t-93 -256.5t-238 -100.5zM395 59q111 0 177.5 80.5t66.5 205.5t-66.5 205.5t-177.5 80.5t-177.5 -80.5t-66.5 -205.5t66.5 -205.5t177.5 -80.5zM395 -203q-21 0 -35 14t-14 35t14 35t35 14 t35 -14t14 -35t-14 -35t-35 -14z" glyph-name="uni1ECC" horiz-adv-x="790" unicode="Ọ"/><glyph d="M291 -12q-106 0 -172 69.5t-66 184.5q0 114 66 183.5t172 69.5t171.5 -69.5t65.5 -183.5q0 -115 -65.5 -184.5t-171.5 -69.5zM291 58q68 0 110.5 50t42.5 134t-42.5 133.5t-110.5 49.5t-111 -49.5t-43 -133.5t43 -134t111 -50zM291 -203q-21 0 -35 14t-14 35t14 35t35 14 t35 -14t14 -35t-14 -35t-35 -14z" glyph-name="uni1ECD" horiz-adv-x="581" unicode="ọ"/><glyph d="M344 -12q-119 0 -190 68t-71 193v434l88 14v-443q0 -90 47 -141.5t126 -51.5q80 0 127 51.5t47 141.5v429l88 14v-448q0 -125 -71 -193t-191 -68zM345 -203q-21 0 -35 14t-14 35t14 35t35 14t35 -14t14 -35t-14 -35t-35 -14z" glyph-name="uni1EE4" horiz-adv-x="689" unicode="Ụ"/><glyph d="M248 -12q-80 0 -129.5 49t-49.5 141v301l84 9v-295q0 -65 31 -100t86 -35q61 0 95 44t34 128v249l84 9v-488h-69l-4 89q-45 -101 -162 -101zM267 -203q-21 0 -35 14t-14 35t14 35t35 14t35 -14t14 -35t-14 -35t-35 -14z" glyph-name="uni1EE5" horiz-adv-x="561" unicode="ụ"/><glyph d="M307 0v293l-264 391l91 12l217 -324l217 324l90 -12l-263 -391v-293h-88zM425 765l-204 112l34 62l199 -121z" glyph-name="Ygrave" horiz-adv-x="702" unicode="Ỳ"/><glyph d="M256 -237q-101 0 -178 63l30 59q71 -54 142 -54q149 0 149 153v85q-49 -81 -151 -81q-80 0 -129.5 49t-49.5 141v301l84 9v-295q0 -65 31 -100t86 -35q61 0 95 44t34 128v249l84 9v-504q0 -101 -62 -161t-165 -60zM357 558l-204 112l34 62l199 -121z" glyph-name="ygrave" horiz-adv-x="561" unicode="ỳ"/><glyph d="M307 0v293l-264 391l91 12l217 -324l217 324l90 -12l-263 -391v-293h-88zM413 802q-32 0 -66.5 30t-53.5 30q-38 0 -45 -56l-55 5q11 114 93 114q32 0 66.5 -30t53.5 -30q38 0 46 56l54 -5q-11 -114 -93 -114z" glyph-name="uni1EF8" horiz-adv-x="702" unicode="Ỹ"/><glyph d="M256 -237q-101 0 -178 63l30 59q71 -54 142 -54q149 0 149 153v85q-49 -81 -151 -81q-80 0 -129.5 49t-49.5 141v301l84 9v-295q0 -65 31 -100t86 -35q61 0 95 44t34 128v249l84 9v-504q0 -101 -62 -161t-165 -60zM345 595q-32 0 -66.5 30t-53.5 30q-38 0 -45 -56l-55 5 q11 114 93 114q32 0 66.5 -30t53.5 -30q38 0 46 56l54 -5q-11 -114 -93 -114z" glyph-name="uni1EF9" horiz-adv-x="561" unicode="ỹ"/><glyph d="M77 246v68h449l-9 -68h-440z" glyph-name="endash" horiz-adv-x="602" unicode="–"/><glyph d="M77 246v68h559l-9 -68h-550z" glyph-name="emdash" horiz-adv-x="712" unicode="—"/><glyph d="M174 665q-47 -27 -51 -70l49 -15q5 -17 5 -30q0 -25 -15.5 -40t-37.5 -15q-27 0 -43.5 20.5t-16.5 57.5q0 84 87 130z" glyph-name="quoteleft" horiz-adv-x="242" unicode="‘"/><glyph d="M68 532q47 27 51 70l-49 15q-5 17 -5 30q0 25 15.5 40t37.5 15q27 0 43.5 -20.5t16.5 -57.5q0 -84 -87 -130z" glyph-name="quoteright" horiz-adv-x="242" unicode="’"/><glyph d="M68 -73q47 27 51 70l-49 15q-5 17 -5 30q0 25 15.5 40t37.5 15q27 0 43.5 -20.5t16.5 -57.5q0 -84 -87 -130z" glyph-name="quotesinglbase" horiz-adv-x="242" unicode="‚"/><glyph d="M326 665q-47 -27 -51 -70l49 -15q5 -17 5 -30q0 -25 -15.5 -40t-37.5 -15q-27 0 -43.5 20.5t-16.5 57.5q0 84 87 130zM175 665q-47 -27 -51 -70l49 -15q5 -17 5 -30q0 -25 -15.5 -40t-37.5 -15q-27 0 -43.5 20.5t-16.5 57.5q0 84 87 130z" glyph-name="quotedblleft" horiz-adv-x="394" unicode="“"/><glyph d="M68 532q47 27 51 70l-49 15q-5 17 -5 30q0 25 15.5 40t37.5 15q27 0 43.5 -20.5t16.5 -57.5q0 -84 -87 -130zM219 532q47 27 51 70l-49 15q-5 17 -5 30q0 25 15.5 40t37.5 15q27 0 43.5 -20.5t16.5 -57.5q0 -84 -87 -130z" glyph-name="quotedblright" horiz-adv-x="394" unicode="”"/><glyph d="M68 -74q47 27 51 70l-49 15q-5 17 -5 30q0 25 15.5 40t37.5 15q27 0 43.5 -20.5t16.5 -57.5q0 -84 -87 -130zM219 -74q47 27 51 70l-49 15q-5 17 -5 30q0 25 15.5 40t37.5 15q27 0 43.5 -20.5t16.5 -57.5q0 -84 -87 -130z" glyph-name="quotedblbase" horiz-adv-x="394" unicode="„"/><glyph d="M270 0v415h-185v68h185v207h84v-207h181v-68h-181v-415h-84z" glyph-name="dagger" horiz-adv-x="620" unicode="†"/><glyph d="M268 0v183h-183v68h183v188h-183v68h183v183h84v-183h183v-68h-183v-188h183v-68h-183v-183h-84z" glyph-name="daggerdbl" horiz-adv-x="620" unicode="‡"/><glyph d="M310 262q-37 0 -60 24t-23 59t23 59t60 24t60 -24t23 -59t-23 -59t-60 -24z" glyph-name="bullet" horiz-adv-x="620" unicode="•"/><glyph d="M127 -8q-26 0 -42 16.5t-16 40.5q0 25 16 41.5t42 16.5q25 0 41 -17t16 -41t-16 -40.5t-41 -16.5zM311 -8q-26 0 -42 16.5t-16 40.5q0 25 16 41.5t42 16.5q25 0 41 -17t16 -41t-16 -40.5t-41 -16.5zM495 -8q-26 0 -42 16.5t-16 40.5q0 25 16 41.5t42 16.5q25 0 41 -17 t16 -41t-16 -40.5t-41 -16.5z" glyph-name="ellipsis" horiz-adv-x="622" unicode="…"/><glyph d="M190 284q-81 0 -122.5 60.5t-41.5 148.5t41.5 148.5t122.5 60.5t122.5 -60.5t41.5 -148.5t-41.5 -148.5t-122.5 -60.5zM190 341q49 0 72.5 43t23.5 109t-23.5 109t-72.5 43t-72.5 -43t-23.5 -109t23.5 -109t72.5 -43zM279 -10l-83 11l405 690l83 -11zM694 -9 q-81 0 -122.5 60.5t-41.5 148.5t41.5 148.5t122.5 60.5t122.5 -60.5t41.5 -148.5t-41.5 -148.5t-122.5 -60.5zM694 48q49 0 72.5 43t23.5 109t-23.5 109t-72.5 43t-72.5 -43t-23.5 -109t23.5 -109t72.5 -43zM1130 -9q-81 0 -122.5 60.5t-41.5 148.5t41.5 148.5t122.5 60.5 t122.5 -60.5t41.5 -148.5t-41.5 -148.5t-122.5 -60.5zM1130 48q49 0 72.5 43t23.5 109t-23.5 109t-72.5 43t-72.5 -43t-23.5 -109t23.5 -109t72.5 -43z" glyph-name="perthousand" horiz-adv-x="1320" unicode="‰"/><glyph d="M210 87l-148 173l148 173l50 -42l-112 -131l112 -131z" glyph-name="guilsinglleft" horiz-adv-x="327" unicode="‹"/><glyph d="M117 87l-50 42l112 131l-112 131l50 42l148 -173z" glyph-name="guilsinglright" horiz-adv-x="327" unicode="›"/><glyph d="M-75 -10l-83 11l405 690l83 -11z" glyph-name="fraction" horiz-adv-x="172" unicode="⁄"/><glyph d="M190 409q-81 0 -122.5 60.5t-41.5 148.5t41.5 148.5t122.5 60.5t122.5 -60.5t41.5 -148.5t-41.5 -148.5t-122.5 -60.5zM190 466q49 0 72.5 43t23.5 109t-23.5 109t-72.5 43t-72.5 -43t-23.5 -109t23.5 -109t72.5 -43z" glyph-name="uni2070" horiz-adv-x="380" unicode="⁰"/><glyph d="M34 520l-4 5l104 312l69 -10l-86 -250h102v93l69 11v-104h64l-7 -57h-57v-88h-69v88h-185z" glyph-name="uni2074" horiz-adv-x="380" unicode="⁴"/><glyph d="M172 409q-76 0 -131 38l28 46q51 -30 100 -30q45 0 72.5 22.5t27.5 57.5q0 36 -30 54.5t-74 18.5q-48 0 -96 -21l-4 2l25 221h229l-7 -52h-175l-11 -105q26 9 58 9q69 0 110 -31.5t41 -91.5q0 -62 -43 -100t-120 -38z" glyph-name="uni2075" horiz-adv-x="380" unicode="⁵"/><glyph d="M200 409q-78 0 -119.5 52t-41.5 138q0 101 50 164.5t143 63.5q59 0 102 -26l-26 -48q-36 18 -75 18q-68 0 -99 -45.5t-30 -116.5q14 29 43 45t66 16q56 0 94 -34.5t38 -90.5q0 -59 -40 -97.5t-105 -38.5zM198 461q37 0 61 22.5t24 57.5q0 34 -23.5 55.5t-60.5 21.5 t-61.5 -21.5t-24.5 -55.5t24 -57t61 -23z" glyph-name="uni2076" horiz-adv-x="380" unicode="⁶"/><glyph d="M162 412l-71 12l156 337h-210v57h303l5 -5z" glyph-name="uni2077" horiz-adv-x="380" unicode="⁷"/><glyph d="M190 409q-66 0 -109 31.5t-43 86.5q0 37 22 62.5t60 37.5q-68 28 -68 92q0 46 39 77t99 31t99 -31t39 -77q0 -64 -68 -92q38 -12 60 -37.5t22 -62.5q0 -55 -43 -86.5t-109 -31.5zM190 462q40 0 65 18t25 50q0 31 -25 49.5t-65 18.5t-65 -18.5t-25 -49.5t25.5 -49.5 t64.5 -18.5zM190 650q34 0 56.5 18t22.5 44t-22.5 44t-56.5 18t-56.5 -18t-22.5 -44t22.5 -44t56.5 -18z" glyph-name="uni2078" horiz-adv-x="380" unicode="⁸"/><glyph d="M180 827q78 0 119.5 -52t41.5 -138q0 -101 -50 -164.5t-143 -63.5q-59 0 -102 26l26 48q36 -18 75 -18q68 0 99 45.5t30 116.5q-14 -29 -43 -45t-66 -16q-56 0 -94 34.5t-38 90.5q0 59 40 97.5t105 38.5zM182 775q-37 0 -61 -22.5t-24 -57.5q0 -34 23.5 -55.5t60.5 -21.5 t61.5 21.5t24.5 55.5t-24 57t-61 23z" glyph-name="uni2079" horiz-adv-x="380" unicode="⁹"/><glyph d="M190 -214q-81 0 -122.5 60.5t-41.5 148.5t41.5 148.5t122.5 60.5t122.5 -60.5t41.5 -148.5t-41.5 -148.5t-122.5 -60.5zM190 -157q49 0 72.5 43t23.5 109t-23.5 109t-72.5 43t-72.5 -43t-23.5 -109t23.5 -109t72.5 -43z" glyph-name="uni2080" horiz-adv-x="380" unicode="₀"/><glyph d="M65 61l-27 51l148 83h56v-343h103l-7 -57h-276v57h112v272z" glyph-name="uni2081" horiz-adv-x="380" unicode="₁"/><glyph d="M48 -205v57l120 88q94 68 94 128q0 37 -28.5 58.5t-73.5 21.5q-48 0 -96 -30l-30 46q66 42 137 42q72 0 115.5 -34t43.5 -95q0 -86 -109 -166l-77 -59h192l-6 -57h-282z" glyph-name="uni2082" horiz-adv-x="380" unicode="₂"/><glyph d="M171 -213q-76 0 -138 38l32 51q45 -30 101 -30q44 0 70.5 17t26.5 50q0 58 -92 58h-60l7 57h55q37 0 58.5 16.5t21.5 42.5q0 30 -24.5 44t-63.5 14q-48 0 -91 -24l-28 51q59 32 126 32q68 0 110.5 -28.5t42.5 -80.5q0 -37 -22 -61.5t-55 -33.5q35 -6 60.5 -28t25.5 -66 q0 -56 -43 -87.5t-120 -31.5z" glyph-name="uni2083" horiz-adv-x="380" unicode="₃"/><glyph d="M34 -117l-4 5l104 312l69 -10l-86 -250h102v93l69 11v-104h64l-7 -57h-57v-88h-69v88h-185z" glyph-name="uni2084" horiz-adv-x="380" unicode="₄"/><glyph d="M172 -214q-76 0 -131 38l28 46q51 -30 100 -30q45 0 72.5 22.5t27.5 57.5q0 36 -30 54.5t-74 18.5q-48 0 -96 -21l-4 2l25 221h229l-7 -52h-175l-11 -105q26 9 58 9q69 0 110 -31.5t41 -91.5q0 -62 -43 -100t-120 -38z" glyph-name="uni2085" horiz-adv-x="380" unicode="₅"/><glyph d="M200 -214q-78 0 -119.5 52t-41.5 138q0 101 50 164.5t143 63.5q59 0 102 -26l-26 -48q-36 18 -75 18q-68 0 -99 -45.5t-30 -116.5q14 29 43 45t66 16q56 0 94 -34.5t38 -90.5q0 -59 -40 -97.5t-105 -38.5zM198 -162q37 0 61 22.5t24 57.5q0 34 -23.5 55.5t-60.5 21.5 t-61.5 -21.5t-24.5 -55.5t24 -57t61 -23z" glyph-name="uni2086" horiz-adv-x="380" unicode="₆"/><glyph d="M162 -211l-71 12l156 337h-210v57h303l5 -5z" glyph-name="uni2087" horiz-adv-x="380" unicode="₇"/><glyph d="M190 -214q-66 0 -109 31.5t-43 86.5q0 37 22 62.5t60 37.5q-68 28 -68 92q0 46 39 77t99 31t99 -31t39 -77q0 -64 -68 -92q38 -12 60 -37.5t22 -62.5q0 -55 -43 -86.5t-109 -31.5zM190 -161q40 0 65 18t25 50q0 31 -25 49.5t-65 18.5t-65 -18.5t-25 -49.5t25.5 -49.5 t64.5 -18.5zM190 27q34 0 56.5 18t22.5 44t-22.5 44t-56.5 18t-56.5 -18t-22.5 -44t22.5 -44t56.5 -18z" glyph-name="uni2088" horiz-adv-x="380" unicode="₈"/><glyph d="M180 204q78 0 119.5 -52t41.5 -138q0 -101 -50 -164.5t-143 -63.5q-59 0 -102 26l26 48q36 -18 75 -18q68 0 99 45.5t30 116.5q-14 -29 -43 -45t-66 -16q-56 0 -94 34.5t-38 90.5q0 59 40 97.5t105 38.5zM182 152q-37 0 -61 -22.5t-24 -57.5q0 -34 23.5 -55.5t60.5 -21.5 t61.5 21.5t24.5 55.5t-24 57t-61 23z" glyph-name="uni2089" horiz-adv-x="380" unicode="₉"/><glyph d="M440 -12q-111 0 -190.5 66.5t-108.5 178.5h-98v65h87q-2 30 -2 47t2 47h-87v65h98q29 112 108.5 178.5t190.5 66.5q75 0 139 -28l-23 -66q-50 24 -108 24q-79 0 -136 -47.5t-82 -127.5h277l-19 -65h-271q-3 -23 -3 -47q0 -25 3 -47h245l-18 -65h-214q25 -80 82 -127.5 t136 -47.5q58 0 108 24l23 -66q-64 -28 -139 -28z" glyph-name="Euro" horiz-adv-x="620" unicode="€"/><glyph d="M44 124v65h93v94h-93v65h93v342h205q106 0 171 -54.5t65 -149.5q0 -94 -65 -148.5t-171 -54.5h-121v-94h193l-9 -65h-184v-124h-84v124h-93zM221 351h122q69 0 110 36.5t41 98.5q0 63 -41 99.5t-110 36.5h-122v-271z" glyph-name="uni20BD" horiz-adv-x="620" unicode="₽"/><glyph d="M92 0v690h69l372 -544v537l78 14v-697h-69l-373 546v-546h-77zM745 174v64h281v-64h-281zM885 330q-83 0 -137 53.5t-54 132.5q0 80 54 133t137 53q84 0 138 -53t54 -133q0 -79 -54.5 -132.5t-137.5 -53.5zM886 388q56 0 91.5 37.5t35.5 90.5q0 54 -35.5 91t-91.5 37 t-92 -37t-36 -91q0 -53 36 -90.5t92 -37.5z" glyph-name="uni2116" horiz-adv-x="1133" unicode="№"/><glyph d="M151 375v261h-111v54h293l-10 -54h-107v-261h-65zM376 375l52 315h47l104 -237l103 237h47l52 -315h-58l-32 205l-89 -205h-47l-89 205l-32 -205h-58z" glyph-name="trademark" horiz-adv-x="837" unicode="™"/><glyph d="M392 -16q-158 0 -251.5 105.5t-93.5 255.5t93.5 255.5t251.5 105.5q79 0 146 -28.5t109.5 -75t66 -104t23.5 -116.5v-53h-603v-138q85 -161 258 -161q60 0 119 18.5t100 46.5l24 -33q-40 -30 -103.5 -54t-139.5 -24zM134 375h516v124q-85 161 -258 161t-258 -161v-124z " glyph-name="estimated" horiz-adv-x="779" unicode="℮"/><glyph d="M206 290v329l-109 -63l-26 51l147 83h56v-400h-68zM271 -10l-83 11l405 690l83 -11zM696 -9q-66 0 -109 31.5t-43 86.5q0 37 22 62.5t60 37.5q-68 28 -68 92q0 46 39 77t99 31t99 -31t39 -77q0 -64 -68 -92q38 -12 60 -37.5t22 -62.5q0 -55 -43 -86.5t-109 -31.5zM696 44 q40 0 65 18t25 50q0 31 -25 49.5t-65 18.5t-65 -18.5t-25 -49.5t25.5 -49.5t64.5 -18.5zM696 232q34 0 56.5 18t22.5 44t-22.5 44t-56.5 18t-56.5 -18t-22.5 -44t22.5 -44t56.5 -18z" glyph-name="oneeighth" horiz-adv-x="886" unicode="⅛"/><glyph d="M171 282q-76 0 -138 38l32 51q45 -30 101 -30q44 0 70.5 17t26.5 50q0 58 -92 58h-60l7 57h55q37 0 58.5 16.5t21.5 42.5q0 30 -24.5 44t-63.5 14q-48 0 -91 -24l-28 51q59 32 126 32q68 0 110.5 -28.5t42.5 -80.5q0 -37 -22 -61.5t-55 -33.5q35 -6 60.5 -28t25.5 -66 q0 -56 -43 -87.5t-120 -31.5zM281 -10l-83 11l405 690l83 -11zM706 -9q-66 0 -109 31.5t-43 86.5q0 37 22 62.5t60 37.5q-68 28 -68 92q0 46 39 77t99 31t99 -31t39 -77q0 -64 -68 -92q38 -12 60 -37.5t22 -62.5q0 -55 -43 -86.5t-109 -31.5zM706 44q40 0 65 18t25 50 q0 31 -25 49.5t-65 18.5t-65 -18.5t-25 -49.5t25.5 -49.5t64.5 -18.5zM706 232q34 0 56.5 18t22.5 44t-22.5 44t-56.5 18t-56.5 -18t-22.5 -44t22.5 -44t56.5 -18z" glyph-name="threeeighths" horiz-adv-x="896" unicode="⅜"/><glyph d="M172 281q-76 0 -131 38l28 46q51 -30 100 -30q45 0 72.5 22.5t27.5 57.5q0 36 -30 54.5t-74 18.5q-48 0 -96 -21l-4 2l25 221h229l-7 -52h-175l-11 -105q26 9 58 9q69 0 110 -31.5t41 -91.5q0 -62 -43 -100t-120 -38zM277 -10l-83 11l405 690l83 -11zM702 -9 q-66 0 -109 31.5t-43 86.5q0 37 22 62.5t60 37.5q-68 28 -68 92q0 46 39 77t99 31t99 -31t39 -77q0 -64 -68 -92q38 -12 60 -37.5t22 -62.5q0 -55 -43 -86.5t-109 -31.5zM702 44q40 0 65 18t25 50q0 31 -25 49.5t-65 18.5t-65 -18.5t-25 -49.5t25.5 -49.5t64.5 -18.5z M702 232q34 0 56.5 18t22.5 44t-22.5 44t-56.5 18t-56.5 -18t-22.5 -44t22.5 -44t56.5 -18z" glyph-name="fiveeighths" horiz-adv-x="892" unicode="⅝"/><glyph d="M162 284l-71 12l156 337h-210v57h303l5 -5zM221 -10l-83 11l405 690l83 -11zM646 -9q-66 0 -109 31.5t-43 86.5q0 37 22 62.5t60 37.5q-68 28 -68 92q0 46 39 77t99 31t99 -31t39 -77q0 -64 -68 -92q38 -12 60 -37.5t22 -62.5q0 -55 -43 -86.5t-109 -31.5zM646 44 q40 0 65 18t25 50q0 31 -25 49.5t-65 18.5t-65 -18.5t-25 -49.5t25.5 -49.5t64.5 -18.5zM646 232q34 0 56.5 18t22.5 44t-22.5 44t-56.5 18t-56.5 -18t-22.5 -44t22.5 -44t56.5 -18z" glyph-name="seveneighths" horiz-adv-x="836" unicode="⅞"/><glyph d="M436 13l-337 337l337 337l52 -51l-249 -249h562v-73h-563l249 -250z" glyph-name="arrowleft" unicode="←"/><glyph d="M165 313l-51 52l337 337l337 -337l-51 -51l-250 249v-563h-72v563z" glyph-name="arrowup" unicode="↑"/><glyph d="M466 13l-51 51l249 250h-563v73h562l-249 249l52 51l337 -337z" glyph-name="arrowright" unicode="→"/><glyph d="M166 377l250 -250v563h72v-563l250 249l51 -51l-337 -337l-337 337z" glyph-name="arrowdown" unicode="↓"/><glyph d="M681 90l-398 398v-353l-73 1v476h477v-73h-352l398 -398z" glyph-name="uni2196" unicode="↖"/><glyph d="M221 80l-52 51l398 398h-352v73h477v-476l-73 -1v353z" glyph-name="uni2197" unicode="↗"/><glyph d="M220 611l398 -398v353l73 -1v-476h-477v73h352l-398 398z" glyph-name="uni2198" unicode="↘"/><glyph d="M681 611l52 -51l-398 -398h352v-73h-477v476l73 1v-353z" glyph-name="uni2199" unicode="↙"/><glyph d="M82 -46l-44 46l114 114q-78 97 -78 231q0 156 99.5 254.5t255.5 98.5q135 0 232 -76l113 113l44 -45l-113 -113q79 -95 79 -232q0 -155 -99 -254t-256 -99q-137 0 -231 78zM429 56q124 0 203 80.5t79 208.5q0 107 -56 182l-409 -409q78 -62 183 -62zM146 345 q0 -104 56 -181l409 409q-75 61 -182 61q-123 0 -203 -80.5t-80 -208.5z" glyph-name="emptyset" horiz-adv-x="856" unicode="∅"/><glyph d="M60 315v63h500v-63h-500z" glyph-name="minus" horiz-adv-x="620" unicode="−"/><glyph d="M553 167q-55 0 -97 27.5t-62 73.5q-21 -47 -62.5 -74t-96.5 -27q-77 0 -129.5 52.5t-52.5 130.5t52.5 130.5t129.5 52.5q55 0 96.5 -27t62.5 -74q20 46 62 73.5t97 27.5q77 0 129 -52t52 -131t-52 -131t-129 -52zM240 222q53 0 86.5 36.5t33.5 91.5t-33.5 91.5 t-86.5 36.5t-87 -36.5t-34 -91.5t34 -91.5t87 -36.5zM548 222q53 0 87 36.5t34 91.5t-34 91.5t-87 36.5t-87 -36.5t-34 -91.5t34 -91.5t87 -36.5z" glyph-name="infinity" horiz-adv-x="788" unicode="∞"/><glyph d="M429 134q-34 0 -68 17t-56.5 38t-51 38t-53.5 17q-34 0 -54 -28.5t-22 -75.5h-64q0 84 35 131t95 47q41 0 81 -27.5t77 -55t70 -27.5q35 0 55.5 28.5t22.5 75.5h64q0 -84 -35 -131t-96 -47zM429 372q-34 0 -68 17t-56.5 38t-51 38t-53.5 17q-34 0 -54 -28.5t-22 -75.5 h-64q0 84 35 131t95 47q41 0 81 -27.5t77 -55t70 -27.5q35 0 55.5 28.5t22.5 75.5h64q0 -84 -35 -131t-96 -47z" glyph-name="approxequal" horiz-adv-x="620" unicode="≈"/><glyph d="M156 97l44 100h-140v63h168l76 174h-244v63h272l44 100h75l-43 -100h152v-63h-180l-75 -174h255v-63h-283l-43 -100h-78z" glyph-name="notequal" horiz-adv-x="620" unicode="≠"/><glyph d="M560 205l-500 168v56l500 168v-60l-422 -136l422 -136v-60zM60 97v56h500v-56h-500z" glyph-name="lessequal" horiz-adv-x="620" unicode="≤"/><glyph d="M60 205v60l422 136l-422 136v60l500 -168v-56zM60 97v56h500v-56h-500z" glyph-name="greaterequal" horiz-adv-x="620" unicode="≥"/><glyph d="M105 0h690v690h-690v-690z" glyph-name="filledbox" unicode="■"/><glyph d="M105 0v690h690v-690h-690zM135 26h630v638h-630v-638z" glyph-name="H22073" unicode="□"/><glyph d="M450 -12q-153 0 -254.5 104.5t-101.5 252.5t101.5 252.5t254.5 104.5t254.5 -104.5t101.5 -252.5t-101.5 -252.5t-254.5 -104.5zM450 13q141 0 234 98t93 234t-93 234t-234 98t-234 -98t-93 -234t93 -234t234 -98z" glyph-name="circle" unicode="○"/><glyph d="M450 -12q153 0 254.5 104.5t101.5 252.5t-101.5 252.5t-254.5 104.5t-254.5 -104.5t-101.5 -252.5t101.5 -252.5t254.5 -104.5z" glyph-name="H18533" unicode="●"/><glyph d="M200 -12q-86 0 -158 40l29 65q60 -33 118 -33q139 0 139 156v468l88 12v-480q0 -113 -57 -170.5t-159 -57.5zM300 774l-30 54l166 101l34 -61z" glyph-name="glyph454" horiz-adv-x="502"/><glyph d="M77 0v477l84 12v-489h-84zM119 588q-25 0 -40.5 16.5t-15.5 40.5t15.5 40t40.5 16t40.5 -16t15.5 -40t-15.5 -40.5t-40.5 -16.5z" glyph-name="i.locl" horiz-adv-x="238"/><glyph d="M28 -213q49 93 49 216v474l84 12v-484q0 -145 -60 -251zM46 567l-30 54l166 101l34 -61z" glyph-name="glyph456" horiz-adv-x="238"/><glyph d="M77 0v477l84 12v-489h-84zM119 -203q-21 0 -35 14t-14 35t14 35t35 14t35 -14t14 -35t-14 -35t-35 -14z" glyph-name="glyph457" horiz-adv-x="238"/><glyph d="M77 0v477l84 12v-489q-93 -46 -93 -112q0 -26 16 -42t42 -16q19 0 36 7l14 -51q-32 -13 -65 -13q-49 0 -80 27t-31 73q0 83 104 127h-27z" glyph-name="glyph458" horiz-adv-x="238"/><glyph d="M462 0l-5 111q-56 -123 -184 -123q-97 0 -158.5 70t-61.5 184t61.5 183.5t158.5 69.5q64 0 111.5 -33t73.5 -92l4 113h69v-483h-69zM292 57q68 0 111.5 50.5t43.5 134.5t-43.5 134t-111.5 50q-69 0 -112 -50t-43 -134q0 -85 43 -135t112 -50z" glyph-name="a.ss01" horiz-adv-x="608"/><glyph d="M462 0l-5 111q-56 -123 -184 -123q-97 0 -158.5 70t-61.5 184t61.5 183.5t158.5 69.5q64 0 111.5 -33t73.5 -92l4 113h69v-483h-69zM292 57q68 0 111.5 50.5t43.5 134.5t-43.5 134t-111.5 50q-69 0 -112 -50t-43 -134q0 -85 43 -135t112 -50zM209 558l-29 53l199 121 l34 -62z" glyph-name="aacute.ss01" horiz-adv-x="608"/><glyph d="M462 0l-5 111q-56 -123 -184 -123q-97 0 -158.5 70t-61.5 184t61.5 183.5t158.5 69.5q64 0 111.5 -33t73.5 -92l4 113h69v-483h-69zM292 57q68 0 111.5 50.5t43.5 134.5t-43.5 134t-111.5 50q-69 0 -112 -50t-43 -134q0 -85 43 -135t112 -50zM302 563q-63 0 -100.5 42 t-35.5 111l57 3q0 -46 20.5 -72.5t58.5 -26.5t58.5 26.5t20.5 72.5l56 -3q3 -69 -34.5 -111t-100.5 -42z" glyph-name="abreve.ss01" horiz-adv-x="608"/><glyph d="M462 0l-5 111q-56 -123 -184 -123q-97 0 -158.5 70t-61.5 184t61.5 183.5t158.5 69.5q64 0 111.5 -33t73.5 -92l4 113h69v-483h-69zM292 57q68 0 111.5 50.5t43.5 134.5t-43.5 134t-111.5 50q-69 0 -112 -50t-43 -134q0 -85 43 -135t112 -50zM193 559l-37 42l146 136 l146 -136l-37 -42l-109 91z" glyph-name="acircumflex.ss01" horiz-adv-x="608"/><glyph d="M462 0l-5 111q-56 -123 -184 -123q-97 0 -158.5 70t-61.5 184t61.5 183.5t158.5 69.5q64 0 111.5 -33t73.5 -92l4 113h69v-483h-69zM292 57q68 0 111.5 50.5t43.5 134.5t-43.5 134t-111.5 50q-69 0 -112 -50t-43 -134q0 -85 43 -135t112 -50zM209 592q-21 0 -35 14 t-14 35t14 35t35 14t35 -14t14 -35t-14 -35t-35 -14zM395 592q-21 0 -35 14t-14 35t14 35t35 14q22 0 35.5 -14t13.5 -35t-13.5 -35t-35.5 -14z" glyph-name="adieresis.ss01" horiz-adv-x="608"/><glyph d="M462 0l-5 111q-56 -123 -184 -123q-97 0 -158.5 70t-61.5 184t61.5 183.5t158.5 69.5q64 0 111.5 -33t73.5 -92l4 113h69v-483h-69zM292 57q68 0 111.5 50.5t43.5 134.5t-43.5 134t-111.5 50q-69 0 -112 -50t-43 -134q0 -85 43 -135t112 -50zM302 -203q-21 0 -35 14 t-14 35t14 35t35 14t35 -14t14 -35t-14 -35t-35 -14z" glyph-name="uni1EA1.ss01" horiz-adv-x="608"/><glyph d="M462 0l-5 111q-56 -123 -184 -123q-97 0 -158.5 70t-61.5 184t61.5 183.5t158.5 69.5q64 0 111.5 -33t73.5 -92l4 113h69v-483h-69zM292 57q68 0 111.5 50.5t43.5 134.5t-43.5 134t-111.5 50q-69 0 -112 -50t-43 -134q0 -85 43 -135t112 -50zM378 558l-204 112l34 62 l199 -121z" glyph-name="agrave.ss01" horiz-adv-x="608"/><glyph d="M462 0l-5 111q-56 -123 -184 -123q-97 0 -158.5 70t-61.5 184t61.5 183.5t158.5 69.5q64 0 111.5 -33t73.5 -92l4 113h69v-483h-69zM292 57q68 0 111.5 50.5t43.5 134.5t-43.5 134t-111.5 50q-69 0 -112 -50t-43 -134q0 -85 43 -135t112 -50zM165 602v64h275l-9 -64h-266 z" glyph-name="amacron.ss01" horiz-adv-x="608"/><glyph d="M462 0l-5 111q-56 -123 -184 -123q-97 0 -158.5 70t-61.5 184t61.5 183.5t158.5 69.5q64 0 111.5 -33t73.5 -92l4 113h69v-483q-93 -46 -93 -112q0 -26 16 -42t42 -16q19 0 36 7l14 -51q-32 -13 -65 -13q-49 0 -80 27t-31 73q0 83 104 127h-12zM292 57q68 0 111.5 50.5 t43.5 134.5t-43.5 134t-111.5 50q-69 0 -112 -50t-43 -134q0 -85 43 -135t112 -50z" glyph-name="aogonek.ss01" horiz-adv-x="608"/><glyph d="M462 0l-5 111q-56 -123 -184 -123q-97 0 -158.5 70t-61.5 184t61.5 183.5t158.5 69.5q64 0 111.5 -33t73.5 -92l4 113h69v-483h-69zM292 57q68 0 111.5 50.5t43.5 134.5t-43.5 134t-111.5 50q-69 0 -112 -50t-43 -134q0 -85 43 -135t112 -50zM302 547q-43 0 -72 28 t-29 70q0 41 29 69t72 28q44 0 72.5 -27.5t28.5 -69.5t-28.5 -70t-72.5 -28zM302 589q24 0 39.5 15.5t15.5 40.5q0 24 -15.5 39.5t-39.5 15.5t-39 -15.5t-15 -39.5q0 -25 15 -40.5t39 -15.5z" glyph-name="aring.ss01" horiz-adv-x="608"/><glyph d="M462 0l-5 111q-56 -123 -184 -123q-97 0 -158.5 70t-61.5 184t61.5 183.5t158.5 69.5q64 0 111.5 -33t73.5 -92l4 113h69v-483h-69zM292 57q68 0 111.5 50.5t43.5 134.5t-43.5 134t-111.5 50q-69 0 -112 -50t-43 -134q0 -85 43 -135t112 -50zM302 543q-43 0 -72 28.5 t-29 69.5t29 69.5t72 28.5q37 0 64 -21l97 61l31 -57l-95 -54q4 -11 4 -27q0 -41 -29 -69.5t-72 -28.5zM302 585q24 0 39 16t15 40t-15 39.5t-39 15.5t-39 -15.5t-15 -39.5t15 -40t39 -16z" glyph-name="aringacute.ss01" horiz-adv-x="608"/><glyph d="M462 0l-5 111q-56 -123 -184 -123q-97 0 -158.5 70t-61.5 184t61.5 183.5t158.5 69.5q64 0 111.5 -33t73.5 -92l4 113h69v-483h-69zM292 57q68 0 111.5 50.5t43.5 134.5t-43.5 134t-111.5 50q-69 0 -112 -50t-43 -134q0 -85 43 -135t112 -50zM366 595q-32 0 -66.5 30 t-53.5 30q-38 0 -45 -56l-55 5q11 114 93 114q32 0 66.5 -30t53.5 -30q38 0 46 56l54 -5q-11 -114 -93 -114z" glyph-name="atilde.ss01" horiz-adv-x="608"/><glyph d="M94 -237q-56 0 -107 23l30 70q36 -19 74 -19q47 0 75.5 28.5t50.5 77.5l36 78l-211 456l86 14l170 -381l170 381l86 -14l-191 -416l-56 -121q-17 -38 -31.5 -62t-40 -54t-61 -45.5t-80.5 -15.5z" glyph-name="y.ss02" horiz-adv-x="590"/><glyph d="M94 -237q-56 0 -107 23l30 70q36 -19 74 -19q47 0 75.5 28.5t50.5 77.5l36 78l-211 456l86 14l170 -381l170 381l86 -14l-191 -416l-56 -121q-17 -38 -31.5 -62t-40 -54t-61 -45.5t-80.5 -15.5zM203 558l-29 53l199 121l34 -62z" glyph-name="yacute.ss02" horiz-adv-x="590"/><glyph d="M94 -237q-56 0 -107 23l30 70q36 -19 74 -19q47 0 75.5 28.5t50.5 77.5l36 78l-211 456l86 14l170 -381l170 381l86 -14l-191 -416l-56 -121q-17 -38 -31.5 -62t-40 -54t-61 -45.5t-80.5 -15.5zM188 559l-37 42l146 136l146 -136l-37 -42l-109 91z" glyph-name="ycircumflex.ss02" horiz-adv-x="590"/><glyph d="M94 -237q-56 0 -107 23l30 70q36 -19 74 -19q47 0 75.5 28.5t50.5 77.5l36 78l-211 456l86 14l170 -381l170 381l86 -14l-191 -416l-56 -121q-17 -38 -31.5 -62t-40 -54t-61 -45.5t-80.5 -15.5zM204 592q-21 0 -35 14t-14 35t14 35t35 14t35 -14t14 -35t-14 -35t-35 -14z M390 592q-21 0 -35 14t-14 35t14 35t35 14q22 0 35.5 -14t13.5 -35t-13.5 -35t-35.5 -14z" glyph-name="ydieresis.ss02" horiz-adv-x="590"/><glyph d="M94 -237q-56 0 -107 23l30 70q36 -19 74 -19q47 0 75.5 28.5t50.5 77.5l36 78l-211 456l86 14l170 -381l170 381l86 -14l-191 -416l-56 -121q-17 -38 -31.5 -62t-40 -54t-61 -45.5t-80.5 -15.5zM372 558l-204 112l34 62l199 -121z" glyph-name="ygrave.ss02" horiz-adv-x="590"/><glyph d="M94 -237q-56 0 -107 23l30 70q36 -19 74 -19q47 0 75.5 28.5t50.5 77.5l36 78l-211 456l86 14l170 -381l170 381l86 -14l-191 -416l-56 -121q-17 -38 -31.5 -62t-40 -54t-61 -45.5t-80.5 -15.5zM159 602v64h275l-9 -64h-266z" glyph-name="uni0233.ss02" horiz-adv-x="590"/><glyph d="M94 -237q-56 0 -107 23l30 70q36 -19 74 -19q47 0 75.5 28.5t50.5 77.5l36 78l-211 456l86 14l170 -381l170 381l86 -14l-191 -416l-56 -121q-17 -38 -31.5 -62t-40 -54t-61 -45.5t-80.5 -15.5zM360 595q-32 0 -66.5 30t-53.5 30q-38 0 -45 -56l-55 5q11 114 93 114 q32 0 66.5 -30t53.5 -30q38 0 46 56l54 -5q-11 -114 -93 -114z" glyph-name="uni1EF9.ss02" horiz-adv-x="590"/><glyph d="M302 -12q-112 0 -180.5 70t-68.5 184q0 104 59 172.5t158 78.5q-26 41 -26 91q0 74 54 115t146 41h194l42 6v-339q51 88 157 88q79 0 126 -50.5t47 -143.5v-301h-84v285q0 67 -28.5 103.5t-82.5 36.5q-61 0 -98 -46t-37 -130v-249h-84v672h-152q-69 0 -106.5 -29.5 t-37.5 -84.5q0 -35 14 -63q74 -3 134 -39l-30 -63q-52 32 -107 32q-78 0 -125 -52.5t-47 -130.5q0 -79 47 -131.5t125 -52.5q55 0 107 32l30 -63q-64 -39 -146 -39z" glyph-name="c_h.dlig" horiz-adv-x="1079"/><glyph d="M302 -12q-112 0 -180.5 70t-68.5 184q0 104 59 172.5t158 78.5q-26 41 -26 91q0 74 54 115t146 41h194l42 6v-468q101 5 158 55.5t58 143.5l84 13q3 -158 -122 -235l165 -249l-90 -12l-150 227q-48 -16 -103 -17v-204h-84v672h-152q-69 0 -106.5 -29.5t-37.5 -84.5 q0 -35 14 -63q74 -3 134 -39l-30 -63q-52 32 -107 32q-78 0 -125 -52.5t-47 -130.5q0 -79 47 -131.5t125 -52.5q55 0 107 32l30 -63q-64 -39 -146 -39z" glyph-name="c_k.dlig" horiz-adv-x="1066"/><glyph d="M302 -12q-112 0 -180.5 70t-68.5 184q0 113 68.5 183t180.5 70q82 0 146 -39l-30 -63q-52 32 -107 32q-78 0 -125 -52.5t-47 -130.5q0 -79 47 -131.5t125 -52.5q55 0 107 32l30 -63q-64 -39 -146 -39zM776 -12q-68 0 -109.5 37.5t-41.5 123.5v266h-83v68h83v115l84 15 v-130h139l-9 -68h-130v-247q0 -110 85 -110q28 0 62 14l19 -63q-48 -21 -99 -21z" glyph-name="c_t.dlig" horiz-adv-x="912"/><glyph d="M127 567q0 90 43.5 137.5t125.5 47.5q39 0 68 -10v-70q-25 10 -52 10q-101 0 -101 -119v-80h244v84q0 90 43.5 137.5t125.5 47.5q38 0 71 -11v-71q-26 12 -55 12q-101 0 -101 -119v-80h286l42 6v-484q0 -145 -60 -251l-73 33q49 93 49 216v412h-244v-415h-84v415h-244 v-415h-84v415h-89v68h89v84zM824 588q-25 0 -40.5 16.5t-15.5 40.5t15.5 40t40.5 16t40.5 -16t15.5 -40t-15.5 -40.5t-40.5 -16.5z" glyph-name="f_f_j.dlig" horiz-adv-x="944"/><glyph d="M127 567q0 90 43.5 137.5t125.5 47.5q39 0 68 -10v-70q-25 10 -52 10q-101 0 -101 -119v-80h243v84q0 90 43.5 137.5t125.5 47.5q39 0 68 -10v-70q-25 10 -52 10q-101 0 -101 -119v-80h244v251l84 12v-468q101 5 158 55.5t58 143.5l84 13q3 -158 -122 -235l165 -249 l-90 -12l-150 227q-48 -16 -103 -17v-204h-84v415h-244v-415h-84v415h-243v-415h-84v415h-89v68h89v84z" glyph-name="f_f_k.dlig" horiz-adv-x="1252"/><glyph d="M127 567q0 90 43.5 137.5t125.5 47.5q38 0 71 -11v-71q-26 12 -55 12q-101 0 -101 -119v-80h287l42 6v-484q0 -145 -60 -251l-73 33q49 93 49 216v412h-245v-415h-84v415h-89v68h89v84zM497 588q-25 0 -40.5 16.5t-15.5 40.5t15.5 40t40.5 16t40.5 -16t15.5 -40 t-15.5 -40.5t-40.5 -16.5z" glyph-name="f_j.dlig" horiz-adv-x="616"/><glyph d="M127 567q0 90 43.5 137.5t125.5 47.5q39 0 68 -10v-70q-25 10 -52 10q-101 0 -101 -119v-80h244v251l84 12v-468q101 5 158 55.5t58 143.5l84 13q3 -158 -122 -235l165 -249l-90 -12l-150 227q-48 -16 -103 -17v-204h-84v415h-244v-415h-84v415h-89v68h89v84z" glyph-name="f_k.dlig" horiz-adv-x="925"/><glyph d="M236 -12q-113 0 -196 78l40 52q70 -62 156 -62q47 0 76 22.5t29 59.5q0 33 -21.5 49.5t-61.5 26.5l-47 12q-67 16 -99.5 47t-32.5 83q0 62 40.5 96.5t106.5 41.5q-26 39 -26 90q0 74 54 115t146 41h202l42 6v-339q51 88 157 88q79 0 126 -50.5t47 -143.5v-301h-84v285 q0 67 -28.5 103.5t-82.5 36.5q-61 0 -98 -46t-37 -130v-249h-84v672h-160q-69 0 -106.5 -29.5t-37.5 -84.5q0 -35 14 -63q88 -3 155 -49l-36 -54q-58 37 -132 37q-95 0 -95 -67q0 -50 78 -70l53 -13q60 -13 95.5 -43.5t35.5 -91.5q0 -74 -53 -115t-135 -41z" glyph-name="s_b.dlig" horiz-adv-x="1027"/><glyph d="M236 -12q-113 0 -196 78l40 52q70 -62 156 -62q47 0 76 22.5t29 59.5q0 33 -21.5 49.5t-61.5 26.5l-47 12q-67 16 -99.5 47t-32.5 83q0 62 40.5 96.5t106.5 41.5q-26 39 -26 90q0 74 54 115t146 41h202l42 6v-354q57 103 174 103q97 0 158.5 -69.5t61.5 -183.5 t-61.5 -184t-158.5 -70q-128 0 -184 123l-4 -111h-70v672h-160q-69 0 -106.5 -29.5t-37.5 -84.5q0 -35 14 -63q88 -3 155 -49l-36 -54q-58 37 -132 37q-95 0 -95 -67q0 -50 78 -70l53 -13q60 -13 95.5 -43.5t35.5 -91.5q0 -74 -53 -115t-135 -41zM799 57q69 0 112 50t43 135 q0 84 -43 134t-112 50q-68 0 -111.5 -50t-43.5 -134t43.5 -134.5t111.5 -50.5z" glyph-name="s_h.dlig" horiz-adv-x="1107"/><glyph d="M236 -12q-113 0 -196 78l40 52q70 -62 156 -62q47 0 76 22.5t29 59.5q0 33 -21.5 49.5t-61.5 26.5l-47 12q-67 16 -99.5 47t-32.5 83q0 62 40.5 96.5t106.5 41.5q-26 39 -26 90q0 74 54 115t146 41h202l42 6v-468q101 5 158 55.5t58 143.5l84 13q3 -158 -122 -235 l165 -249l-90 -12l-150 227q-48 -16 -103 -17v-204h-84v672h-160q-69 0 -106.5 -29.5t-37.5 -84.5q0 -35 14 -63q88 -3 155 -49l-36 -54q-58 37 -132 37q-95 0 -95 -67q0 -50 78 -70l53 -13q60 -13 95.5 -43.5t35.5 -91.5q0 -74 -53 -115t-135 -41z" glyph-name="s_k.dlig" horiz-adv-x="1030"/><glyph d="M236 -12q-113 0 -196 78l40 52q70 -62 156 -62q47 0 76 22.5t29 59.5q0 33 -21.5 49.5t-61.5 26.5l-47 12q-67 16 -99.5 47t-32.5 83q0 62 40.5 96.5t106.5 41.5q-26 39 -26 90q0 74 54 115t146 41h201l42 6v-597q0 -87 67 -87q19 0 40 8l18 -64q-35 -14 -77 -14 q-132 0 -132 159v521h-159q-69 0 -106.5 -29.5t-37.5 -84.5q0 -35 14 -63q88 -3 155 -49l-36 -54q-58 37 -132 37q-95 0 -95 -67q0 -50 78 -70l53 -13q60 -13 95.5 -43.5t35.5 -91.5q0 -74 -53 -115t-135 -41z" glyph-name="s_l.dlig" horiz-adv-x="803"/><glyph d="M236 -12q-113 0 -196 78l40 52q70 -62 156 -62q47 0 76 22.5t29 59.5q0 33 -21.5 49.5t-61.5 26.5l-47 12q-67 16 -99.5 47t-32.5 83q0 69 49.5 104t128.5 35q97 0 168 -49l-36 -54q-58 37 -132 37q-95 0 -95 -67q0 -50 78 -70l53 -13q60 -13 95.5 -43.5t35.5 -91.5 q0 -74 -53 -115t-135 -41zM733 -12q-68 0 -109.5 37.5t-41.5 123.5v266h-83v68h83v115l84 15v-130h139l-9 -68h-130v-247q0 -110 85 -110q28 0 62 14l19 -63q-48 -21 -99 -21z" glyph-name="s_t.dlig" horiz-adv-x="868"/><glyph d="M272 -12q-68 0 -109.5 37.5t-41.5 123.5v266h-83v68h83v115l84 15v-130h44v3h204v112l84 15v-130h139l-9 -68h-130v-247q0 -110 85 -110q28 0 62 14l19 -63q-48 -21 -99 -21q-68 0 -109.5 37.5t-41.5 123.5v266h-83v7h-34l-1 -7h-130v-247q0 -110 85 -110q28 0 62 14 l19 -63q-48 -21 -99 -21z" glyph-name="t_t.dlig" horiz-adv-x="598"/><glyph d="M310 294q-21 0 -36 15t-15 37t15 36.5t36 14.5q22 0 37 -14.5t15 -36.5t-15 -37t-37 -15zM310 -8q-69 0 -122 29t-84.5 79t-47 112t-15.5 133t15.5 133t47 112t84.5 79t122 29t122 -29t84.5 -79t47 -112t15.5 -133t-15.5 -133t-47 -112t-84.5 -79t-122 -29zM310 62 q93 0 138 80.5t45 202.5t-45 202.5t-138 80.5t-138 -80.5t-45 -202.5t45 -202.5t138 -80.5z" glyph-name="zero.zero" horiz-adv-x="620"/><glyph d="M335 -8q-69 0 -122 29t-84.5 79t-47 112t-15.5 133t15.5 133t47 112t84.5 79t122 29t122 -29t84.5 -79t47 -112t15.5 -133t-15.5 -133t-47 -112t-84.5 -79t-122 -29zM335 62q93 0 138 80.5t45 202.5t-45 202.5t-138 80.5t-138 -80.5t-45 -202.5t45 -202.5t138 -80.5z" glyph-name="zero.pnum" horiz-adv-x="670"/><glyph d="M82 479l-33 62l245 149h68v-690h-84v597z" glyph-name="one.pnum" horiz-adv-x="454"/><glyph d="M69 0v68l204 165q88 71 128.5 128.5t40.5 119.5q0 71 -50.5 111t-134.5 40q-85 0 -166 -53l-37 59q102 64 217 64q117 0 187 -54.5t70 -155.5q0 -82 -44 -152.5t-137 -142.5l-165 -129h357l-7 -68h-463z" glyph-name="two.pnum" horiz-adv-x="596"/><glyph d="M266 58q83 0 133 37t50 103q0 122 -174 122h-93l9 70h87q69 0 111 34.5t42 91.5q0 58 -46 87t-118 29q-84 0 -155 -42l-35 61q90 51 197 51q108 0 175 -46t67 -132q0 -69 -39.5 -111.5t-95.5 -56.5q26 -3 50 -12.5t49 -27t40 -50t15 -75.5q0 -96 -70 -149.5t-193 -53.5 t-217 62l37 60q80 -52 174 -52z" glyph-name="three.pnum" horiz-adv-x="598"/><glyph d="M58 163l-6 5l183 529l77 -14l-157 -452h218v175l80 13v-188h124l-10 -68h-114v-163h-80v163h-315z" glyph-name="four.pnum" horiz-adv-x="627"/><glyph d="M265 58q80 0 129.5 43t49.5 114q0 70 -52 106.5t-133 36.5q-89 0 -162 -38l-6 4l38 366h373l-8 -68h-305l-22 -212q54 19 116 19q113 0 180 -53.5t67 -155.5q0 -105 -70 -168.5t-191 -63.5t-215 62l37 61q83 -53 174 -53z" glyph-name="five.pnum" horiz-adv-x="589"/><glyph d="M326 -12q-129 0 -195 89t-66 234q0 176 80.5 283.5t231.5 107.5q96 0 164 -43l-31 -59q-61 32 -132 32q-82 0 -136 -46.5t-74 -116.5t-17 -158q23 56 73 88t118 32q94 0 157.5 -60t63.5 -156q0 -99 -66 -163t-171 -64zM321 57q69 0 113.5 43t44.5 111q0 67 -43.5 109 t-111.5 42t-113.5 -42t-45.5 -109t44.5 -110.5t111.5 -43.5z" glyph-name="six.pnum" horiz-adv-x="623"/><glyph d="M234 -6l-86 12l278 615h-376v69h486l6 -5z" glyph-name="seven.pnum" horiz-adv-x="592"/><glyph d="M308 -12q-108 0 -178.5 52.5t-70.5 145.5q0 65 38.5 110t103.5 64q-55 22 -86.5 64.5t-31.5 96.5q0 79 63.5 130t161.5 51t161.5 -51t63.5 -130q0 -54 -31.5 -96.5t-86.5 -64.5q65 -19 103.5 -64t38.5 -110q0 -93 -70.5 -145.5t-178.5 -52.5zM308 57q72 0 118 35.5 t46 97.5q0 61 -46 96.5t-118 35.5t-118 -35.5t-46 -96.5q0 -62 46 -97.5t118 -35.5zM308 393q63 0 104 34t41 86q0 51 -41 85.5t-104 34.5t-104 -34.5t-41 -85.5q0 -52 41 -86t104 -34z" glyph-name="eight.pnum" horiz-adv-x="617"/><glyph d="M297 702q129 0 195 -89t66 -234q0 -176 -80.5 -283.5t-231.5 -107.5q-96 0 -164 43l31 59q61 -32 132 -32q82 0 136 46.5t74 116.5t17 158q-23 -56 -73 -88t-118 -32q-94 0 -157.5 60t-63.5 156q0 99 66 163t171 64zM302 633q-69 0 -113.5 -43t-44.5 -111 q0 -67 43.5 -109t111.5 -42t113.5 42t45.5 109t-44.5 110.5t-111.5 43.5z" glyph-name="nine.pnum" horiz-adv-x="623"/><glyph d="M342 -12q-135 0 -211 86.5t-76 207.5t75.5 205.5t211.5 84.5q135 0 211 -84.5t76 -205.5t-76 -207.5t-211 -86.5zM342 56q97 0 150 67t53 159t-52.5 157t-150.5 65t-150.5 -65t-52.5 -157q0 -93 52.5 -159.5t150.5 -66.5z" glyph-name="zero.oldstyle" horiz-adv-x="683"/><glyph d="M68 352l-33 62l240 146h68v-492h184l-9 -68h-456v68h197v400z" glyph-name="one.oldstyle" horiz-adv-x="537"/><glyph d="M67 0v68l187 130q81 57 116 99.5t35 89.5q0 55 -44.5 85t-120.5 30q-77 0 -151 -42l-37 58q95 55 202 55q108 0 173 -45.5t65 -129.5q0 -65 -43 -121t-129 -114l-135 -95h317l-7 -68h-428z" glyph-name="two.oldstyle" horiz-adv-x="554"/><glyph d="M234 -72q83 0 133 37t50 103q0 122 -174 122h-93l9 70h87q69 0 111 34.5t42 91.5q0 58 -46 87t-118 29q-84 0 -155 -42l-35 61q90 51 197 51q108 0 175 -46t67 -132q0 -69 -39.5 -111.5t-95.5 -56.5q26 -3 50 -12.5t49 -27t40 -50t15 -75.5q0 -96 -70 -149.5t-193 -53.5 t-217 62l37 60q80 -52 174 -52z" glyph-name="three.oldstyle" horiz-adv-x="564"/><glyph d="M42 33l-6 5l183 529l77 -14l-157 -452h218v175l80 13v-188h124l-10 -68h-114v-163h-80v163h-315z" glyph-name="four.oldstyle" horiz-adv-x="571"/><glyph d="M235 -72q80 0 129.5 43t49.5 114q0 70 -52 106.5t-133 36.5q-89 0 -162 -38l-6 4l38 366h373l-8 -68h-305l-22 -212q54 19 116 19q113 0 180 -53.5t67 -155.5q0 -105 -70 -168.5t-191 -63.5t-215 62l37 61q83 -53 174 -53z" glyph-name="five.oldstyle" horiz-adv-x="542"/><glyph d="M321 -12q-129 0 -195 89t-66 234q0 176 80.5 283.5t231.5 107.5q96 0 164 -43l-31 -59q-61 32 -132 32q-82 0 -136 -46.5t-74 -116.5t-17 -158q23 56 73 88t118 32q94 0 157.5 -60t63.5 -156q0 -99 -66 -163t-171 -64zM316 57q69 0 113.5 43t44.5 111q0 67 -43.5 109 t-111.5 42t-113.5 -42t-45.5 -109t44.5 -110.5t111.5 -43.5z" glyph-name="six.oldstyle" horiz-adv-x="613"/><glyph d="M203 -136l-86 12l278 615h-376v69h486l6 -5z" glyph-name="seven.oldstyle" horiz-adv-x="547"/><glyph d="M308 -12q-108 0 -178.5 52.5t-70.5 145.5q0 65 38.5 110t103.5 64q-55 22 -86.5 64.5t-31.5 96.5q0 79 63.5 130t161.5 51t161.5 -51t63.5 -130q0 -54 -31.5 -96.5t-86.5 -64.5q65 -19 103.5 -64t38.5 -110q0 -93 -70.5 -145.5t-178.5 -52.5zM308 57q72 0 118 35.5 t46 97.5q0 61 -46 96.5t-118 35.5t-118 -35.5t-46 -96.5q0 -62 46 -97.5t118 -35.5zM308 393q63 0 104 34t41 86q0 51 -41 85.5t-104 34.5t-104 -34.5t-41 -85.5q0 -52 41 -86t104 -34z" glyph-name="eight.oldstyle" horiz-adv-x="616"/><glyph d="M280 572q129 0 195 -89t66 -234q0 -176 -80.5 -283.5t-231.5 -107.5q-96 0 -164 43l31 59q61 -32 132 -32q82 0 136 46.5t74 116.5t17 158q-23 -56 -73 -88t-118 -32q-94 0 -157.5 60t-63.5 156q0 99 66 163t171 64zM285 503q-69 0 -113.5 -43t-44.5 -111 q0 -67 43.5 -109t111.5 -42t113.5 42t45.5 109t-44.5 110.5t-111.5 43.5z" glyph-name="nine.oldstyle" horiz-adv-x="601"/><glyph d="M450 -12q-153 0 -254.5 104.5t-101.5 252.5t101.5 252.5t254.5 104.5t254.5 -104.5t101.5 -252.5t-101.5 -252.5t-254.5 -104.5zM450 13q141 0 234 98t93 234t-93 234t-234 98t-234 -98t-93 -234t93 -234t234 -98zM450 136q-81 0 -122.5 60.5t-41.5 148.5t41.5 148.5 t122.5 60.5t122.5 -60.5t41.5 -148.5t-41.5 -148.5t-122.5 -60.5zM450 193q49 0 72.5 43t23.5 109t-23.5 109t-72.5 43t-72.5 -43t-23.5 -109t23.5 -109t72.5 -43z" glyph-name="zero.ss10"/><glyph d="M450 -12q-153 0 -254.5 104.5t-101.5 252.5t101.5 252.5t254.5 104.5t254.5 -104.5t101.5 -252.5t-101.5 -252.5t-254.5 -104.5zM450 13q141 0 234 98t93 234t-93 234t-234 98t-234 -98t-93 -234t93 -234t234 -98zM324 411l-27 51l148 83h56v-343h103l-7 -57h-276v57h112 v272z" glyph-name="one.ss10"/><glyph d="M450 -12q-153 0 -254.5 104.5t-101.5 252.5t101.5 252.5t254.5 104.5t254.5 -104.5t101.5 -252.5t-101.5 -252.5t-254.5 -104.5zM450 13q141 0 234 98t93 234t-93 234t-234 98t-234 -98t-93 -234t93 -234t234 -98zM307 145v57l120 88q94 68 94 128q0 37 -28.5 58.5 t-73.5 21.5q-48 0 -96 -30l-30 46q66 42 137 42q72 0 115.5 -34t43.5 -95q0 -86 -109 -166l-77 -59h192l-6 -57h-282z" glyph-name="two.ss10"/><glyph d="M450 -12q-153 0 -254.5 104.5t-101.5 252.5t101.5 252.5t254.5 104.5t254.5 -104.5t101.5 -252.5t-101.5 -252.5t-254.5 -104.5zM450 13q141 0 234 98t93 234t-93 234t-234 98t-234 -98t-93 -234t93 -234t234 -98zM428 137q-76 0 -138 38l32 51q45 -30 101 -30 q44 0 70.5 17t26.5 50q0 58 -92 58h-60l7 57h55q37 0 58.5 16.5t21.5 42.5q0 30 -24.5 44t-63.5 14q-48 0 -91 -24l-28 51q59 32 126 32q68 0 110.5 -28.5t42.5 -80.5q0 -37 -22 -61.5t-55 -33.5q35 -6 60.5 -28t25.5 -66q0 -56 -43 -87.5t-120 -31.5z" glyph-name="three.ss10"/><glyph d="M450 -12q-153 0 -254.5 104.5t-101.5 252.5t101.5 252.5t254.5 104.5t254.5 -104.5t101.5 -252.5t-101.5 -252.5t-254.5 -104.5zM450 13q141 0 234 98t93 234t-93 234t-234 98t-234 -98t-93 -234t93 -234t234 -98zM286 233l-4 5l104 312l69 -10l-86 -250h102v93l69 11 v-104h64l-7 -57h-57v-88h-69v88h-185z" glyph-name="four.ss10"/><glyph d="M450 -12q-153 0 -254.5 104.5t-101.5 252.5t101.5 252.5t254.5 104.5t254.5 -104.5t101.5 -252.5t-101.5 -252.5t-254.5 -104.5zM450 13q141 0 234 98t93 234t-93 234t-234 98t-234 -98t-93 -234t93 -234t234 -98zM422 136q-76 0 -131 38l28 46q51 -30 100 -30 q45 0 72.5 22.5t27.5 57.5q0 36 -30 54.5t-74 18.5q-48 0 -96 -21l-4 2l25 221h229l-7 -52h-175l-11 -105q26 9 58 9q69 0 110 -31.5t41 -91.5q0 -62 -43 -100t-120 -38z" glyph-name="five.ss10"/><glyph d="M450 -12q-153 0 -254.5 104.5t-101.5 252.5t101.5 252.5t254.5 104.5t254.5 -104.5t101.5 -252.5t-101.5 -252.5t-254.5 -104.5zM450 13q141 0 234 98t93 234t-93 234t-234 98t-234 -98t-93 -234t93 -234t234 -98zM434 136q-78 0 -119.5 52t-41.5 138q0 101 50 164.5 t143 63.5q59 0 102 -26l-26 -48q-36 18 -75 18q-68 0 -99 -45.5t-30 -116.5q14 29 43 45t66 16q56 0 94 -34.5t38 -90.5q0 -59 -40 -97.5t-105 -38.5zM432 188q37 0 61 22.5t24 57.5q0 34 -23.5 55.5t-60.5 21.5t-61.5 -21.5t-24.5 -55.5t24 -57t61 -23z" glyph-name="six.ss10"/><glyph d="M450 -12q-153 0 -254.5 104.5t-101.5 252.5t101.5 252.5t254.5 104.5t254.5 -104.5t101.5 -252.5t-101.5 -252.5t-254.5 -104.5zM450 13q141 0 234 98t93 234t-93 234t-234 98t-234 -98t-93 -234t93 -234t234 -98zM422 139l-71 12l156 337h-210v57h303l5 -5z" glyph-name="seven.ss10"/><glyph d="M450 -12q-153 0 -254.5 104.5t-101.5 252.5t101.5 252.5t254.5 104.5t254.5 -104.5t101.5 -252.5t-101.5 -252.5t-254.5 -104.5zM450 13q141 0 234 98t93 234t-93 234t-234 98t-234 -98t-93 -234t93 -234t234 -98zM450 136q-66 0 -109 31.5t-43 86.5q0 37 22 62.5 t60 37.5q-68 28 -68 92q0 46 39 77t99 31t99 -31t39 -77q0 -64 -68 -92q38 -12 60 -37.5t22 -62.5q0 -55 -43 -86.5t-109 -31.5zM450 189q40 0 65 18t25 50q0 31 -25 49.5t-65 18.5t-65 -18.5t-25 -49.5t25.5 -49.5t64.5 -18.5zM450 377q34 0 56.5 18t22.5 44t-22.5 44 t-56.5 18t-56.5 -18t-22.5 -44t22.5 -44t56.5 -18z" glyph-name="eight.ss10"/><glyph d="M450 -12q-153 0 -254.5 104.5t-101.5 252.5t101.5 252.5t254.5 104.5t254.5 -104.5t101.5 -252.5t-101.5 -252.5t-254.5 -104.5zM450 13q141 0 234 98t93 234t-93 234t-234 98t-234 -98t-93 -234t93 -234t234 -98zM466 554q78 0 119.5 -52t41.5 -138q0 -101 -50 -164.5 t-143 -63.5q-59 0 -102 26l26 48q36 -18 75 -18q68 0 99 45.5t30 116.5q-14 -29 -43 -45t-66 -16q-56 0 -94 34.5t-38 90.5q0 59 40 97.5t105 38.5zM468 502q-37 0 -61 -22.5t-24 -57.5q0 -34 23.5 -55.5t60.5 -21.5t61.5 21.5t24.5 55.5t-24 57t-61 23z" glyph-name="nine.ss10"/><glyph d="M450 -12q153 0 254.5 104.5t101.5 252.5t-101.5 252.5t-254.5 104.5t-254.5 -104.5t-101.5 -252.5t101.5 -252.5t254.5 -104.5zM450 136q-81 0 -122.5 60.5t-41.5 148.5t41.5 148.5t122.5 60.5t122.5 -60.5t41.5 -148.5t-41.5 -148.5t-122.5 -60.5zM450 193q49 0 72.5 43 t23.5 109t-23.5 109t-72.5 43t-72.5 -43t-23.5 -109t23.5 -109t72.5 -43z" glyph-name="zero.ss11"/><glyph d="M450 -12q153 0 254.5 104.5t101.5 252.5t-101.5 252.5t-254.5 104.5t-254.5 -104.5t-101.5 -252.5t101.5 -252.5t254.5 -104.5zM324 411l-27 51l148 83h56v-343h103l-7 -57h-276v57h112v272z" glyph-name="one.ss11"/><glyph d="M450 -12q153 0 254.5 104.5t101.5 252.5t-101.5 252.5t-254.5 104.5t-254.5 -104.5t-101.5 -252.5t101.5 -252.5t254.5 -104.5zM307 145v57l120 88q94 68 94 128q0 37 -28.5 58.5t-73.5 21.5q-48 0 -96 -30l-30 46q66 42 137 42q72 0 115.5 -34t43.5 -95q0 -86 -109 -166 l-77 -59h192l-6 -57h-282z" glyph-name="two.ss11"/><glyph d="M450 -12q153 0 254.5 104.5t101.5 252.5t-101.5 252.5t-254.5 104.5t-254.5 -104.5t-101.5 -252.5t101.5 -252.5t254.5 -104.5zM428 137q-76 0 -138 38l32 51q45 -30 101 -30q44 0 70.5 17t26.5 50q0 58 -92 58h-60l7 57h55q37 0 58.5 16.5t21.5 42.5q0 30 -24.5 44 t-63.5 14q-48 0 -91 -24l-28 51q59 32 126 32q68 0 110.5 -28.5t42.5 -80.5q0 -37 -22 -61.5t-55 -33.5q35 -6 60.5 -28t25.5 -66q0 -56 -43 -87.5t-120 -31.5z" glyph-name="three.ss11"/><glyph d="M450 -12q153 0 254.5 104.5t101.5 252.5t-101.5 252.5t-254.5 104.5t-254.5 -104.5t-101.5 -252.5t101.5 -252.5t254.5 -104.5zM286 233l-4 5l104 312l69 -10l-86 -250h102v93l69 11v-104h64l-7 -57h-57v-88h-69v88h-185z" glyph-name="four.ss11"/><glyph d="M450 -12q153 0 254.5 104.5t101.5 252.5t-101.5 252.5t-254.5 104.5t-254.5 -104.5t-101.5 -252.5t101.5 -252.5t254.5 -104.5zM422 136q-76 0 -131 38l28 46q51 -30 100 -30q45 0 72.5 22.5t27.5 57.5q0 36 -30 54.5t-74 18.5q-48 0 -96 -21l-4 2l25 221h229l-7 -52 h-175l-11 -105q26 9 58 9q69 0 110 -31.5t41 -91.5q0 -62 -43 -100t-120 -38z" glyph-name="five.ss11"/><glyph d="M450 -12q153 0 254.5 104.5t101.5 252.5t-101.5 252.5t-254.5 104.5t-254.5 -104.5t-101.5 -252.5t101.5 -252.5t254.5 -104.5zM434 136q-78 0 -119.5 52t-41.5 138q0 101 50 164.5t143 63.5q59 0 102 -26l-26 -48q-36 18 -75 18q-68 0 -99 -45.5t-30 -116.5q14 29 43 45 t66 16q56 0 94 -34.5t38 -90.5q0 -59 -40 -97.5t-105 -38.5zM432 188q37 0 61 22.5t24 57.5q0 34 -23.5 55.5t-60.5 21.5t-61.5 -21.5t-24.5 -55.5t24 -57t61 -23z" glyph-name="six.ss11"/><glyph d="M450 -12q153 0 254.5 104.5t101.5 252.5t-101.5 252.5t-254.5 104.5t-254.5 -104.5t-101.5 -252.5t101.5 -252.5t254.5 -104.5zM422 139l-71 12l156 337h-210v57h303l5 -5z" glyph-name="seven.ss11"/><glyph d="M450 -12q153 0 254.5 104.5t101.5 252.5t-101.5 252.5t-254.5 104.5t-254.5 -104.5t-101.5 -252.5t101.5 -252.5t254.5 -104.5zM450 136q-66 0 -109 31.5t-43 86.5q0 37 22 62.5t60 37.5q-68 28 -68 92q0 46 39 77t99 31t99 -31t39 -77q0 -64 -68 -92q38 -12 60 -37.5 t22 -62.5q0 -55 -43 -86.5t-109 -31.5zM450 189q40 0 65 18t25 50q0 31 -25 49.5t-65 18.5t-65 -18.5t-25 -49.5t25.5 -49.5t64.5 -18.5zM450 377q34 0 56.5 18t22.5 44t-22.5 44t-56.5 18t-56.5 -18t-22.5 -44t22.5 -44t56.5 -18z" glyph-name="eight.ss11"/><glyph d="M450 -12q153 0 254.5 104.5t101.5 252.5t-101.5 252.5t-254.5 104.5t-254.5 -104.5t-101.5 -252.5t101.5 -252.5t254.5 -104.5zM466 554q78 0 119.5 -52t41.5 -138q0 -101 -50 -164.5t-143 -63.5q-59 0 -102 26l26 48q36 -18 75 -18q68 0 99 45.5t30 116.5 q-14 -29 -43 -45t-66 -16q-56 0 -94 34.5t-38 90.5q0 59 40 97.5t105 38.5zM468 502q-37 0 -61 -22.5t-24 -57.5q0 -34 23.5 -55.5t60.5 -21.5t61.5 21.5t24.5 55.5t-24 57t-61 23z" glyph-name="nine.ss11"/><glyph d="M105 0v690h690v-690h-690zM135 26h630v638h-630v-638zM450 136q-81 0 -122.5 60.5t-41.5 148.5t41.5 148.5t122.5 60.5t122.5 -60.5t41.5 -148.5t-41.5 -148.5t-122.5 -60.5zM450 193q49 0 72.5 43t23.5 109t-23.5 109t-72.5 43t-72.5 -43t-23.5 -109t23.5 -109t72.5 -43 z" glyph-name="zero.ss12"/><glyph d="M105 0v690h690v-690h-690zM135 26h630v638h-630v-638zM324 411l-27 51l148 83h56v-343h103l-7 -57h-276v57h112v272z" glyph-name="one.ss12"/><glyph d="M105 0v690h690v-690h-690zM135 26h630v638h-630v-638zM307 145v57l120 88q94 68 94 128q0 37 -28.5 58.5t-73.5 21.5q-48 0 -96 -30l-30 46q66 42 137 42q72 0 115.5 -34t43.5 -95q0 -86 -109 -166l-77 -59h192l-6 -57h-282z" glyph-name="two.ss12"/><glyph d="M105 0v690h690v-690h-690zM135 26h630v638h-630v-638zM428 137q-76 0 -138 38l32 51q45 -30 101 -30q44 0 70.5 17t26.5 50q0 58 -92 58h-60l7 57h55q37 0 58.5 16.5t21.5 42.5q0 30 -24.5 44t-63.5 14q-48 0 -91 -24l-28 51q59 32 126 32q68 0 110.5 -28.5t42.5 -80.5 q0 -37 -22 -61.5t-55 -33.5q35 -6 60.5 -28t25.5 -66q0 -56 -43 -87.5t-120 -31.5z" glyph-name="three.ss12"/><glyph d="M105 0v690h690v-690h-690zM135 26h630v638h-630v-638zM286 233l-4 5l104 312l69 -10l-86 -250h102v93l69 11v-104h64l-7 -57h-57v-88h-69v88h-185z" glyph-name="four.ss12"/><glyph d="M105 0v690h690v-690h-690zM135 26h630v638h-630v-638zM422 136q-76 0 -131 38l28 46q51 -30 100 -30q45 0 72.5 22.5t27.5 57.5q0 36 -30 54.5t-74 18.5q-48 0 -96 -21l-4 2l25 221h229l-7 -52h-175l-11 -105q26 9 58 9q69 0 110 -31.5t41 -91.5q0 -62 -43 -100t-120 -38 z" glyph-name="five.ss12"/><glyph d="M105 0v690h690v-690h-690zM135 26h630v638h-630v-638zM434 136q-78 0 -119.5 52t-41.5 138q0 101 50 164.5t143 63.5q59 0 102 -26l-26 -48q-36 18 -75 18q-68 0 -99 -45.5t-30 -116.5q14 29 43 45t66 16q56 0 94 -34.5t38 -90.5q0 -59 -40 -97.5t-105 -38.5zM432 188 q37 0 61 22.5t24 57.5q0 34 -23.5 55.5t-60.5 21.5t-61.5 -21.5t-24.5 -55.5t24 -57t61 -23z" glyph-name="six.ss12"/><glyph d="M105 0v690h690v-690h-690zM135 26h630v638h-630v-638zM422 139l-71 12l156 337h-210v57h303l5 -5z" glyph-name="seven.ss12"/><glyph d="M105 0v690h690v-690h-690zM135 26h630v638h-630v-638zM450 136q-66 0 -109 31.5t-43 86.5q0 37 22 62.5t60 37.5q-68 28 -68 92q0 46 39 77t99 31t99 -31t39 -77q0 -64 -68 -92q38 -12 60 -37.5t22 -62.5q0 -55 -43 -86.5t-109 -31.5zM450 189q40 0 65 18t25 50 q0 31 -25 49.5t-65 18.5t-65 -18.5t-25 -49.5t25.5 -49.5t64.5 -18.5zM450 377q34 0 56.5 18t22.5 44t-22.5 44t-56.5 18t-56.5 -18t-22.5 -44t22.5 -44t56.5 -18z" glyph-name="eight.ss12"/><glyph d="M105 0v690h690v-690h-690zM135 26h630v638h-630v-638zM466 554q78 0 119.5 -52t41.5 -138q0 -101 -50 -164.5t-143 -63.5q-59 0 -102 26l26 48q36 -18 75 -18q68 0 99 45.5t30 116.5q-14 -29 -43 -45t-66 -16q-56 0 -94 34.5t-38 90.5q0 59 40 97.5t105 38.5zM468 502 q-37 0 -61 -22.5t-24 -57.5q0 -34 23.5 -55.5t60.5 -21.5t61.5 21.5t24.5 55.5t-24 57t-61 23z" glyph-name="nine.ss12"/><glyph d="M105 0h690v690h-690v-690zM450 136q-81 0 -122.5 60.5t-41.5 148.5t41.5 148.5t122.5 60.5t122.5 -60.5t41.5 -148.5t-41.5 -148.5t-122.5 -60.5zM450 193q49 0 72.5 43t23.5 109t-23.5 109t-72.5 43t-72.5 -43t-23.5 -109t23.5 -109t72.5 -43z" glyph-name="zero.ss13"/><glyph d="M105 0h690v690h-690v-690zM324 411l-27 51l148 83h56v-343h103l-7 -57h-276v57h112v272z" glyph-name="one.ss13"/><glyph d="M105 0h690v690h-690v-690zM307 145v57l120 88q94 68 94 128q0 37 -28.5 58.5t-73.5 21.5q-48 0 -96 -30l-30 46q66 42 137 42q72 0 115.5 -34t43.5 -95q0 -86 -109 -166l-77 -59h192l-6 -57h-282z" glyph-name="two.ss13"/><glyph d="M105 0h690v690h-690v-690zM428 137q-76 0 -138 38l32 51q45 -30 101 -30q44 0 70.5 17t26.5 50q0 58 -92 58h-60l7 57h55q37 0 58.5 16.5t21.5 42.5q0 30 -24.5 44t-63.5 14q-48 0 -91 -24l-28 51q59 32 126 32q68 0 110.5 -28.5t42.5 -80.5q0 -37 -22 -61.5t-55 -33.5 q35 -6 60.5 -28t25.5 -66q0 -56 -43 -87.5t-120 -31.5z" glyph-name="three.ss13"/><glyph d="M105 0h690v690h-690v-690zM286 233l-4 5l104 312l69 -10l-86 -250h102v93l69 11v-104h64l-7 -57h-57v-88h-69v88h-185z" glyph-name="four.ss13"/><glyph d="M105 0h690v690h-690v-690zM422 136q-76 0 -131 38l28 46q51 -30 100 -30q45 0 72.5 22.5t27.5 57.5q0 36 -30 54.5t-74 18.5q-48 0 -96 -21l-4 2l25 221h229l-7 -52h-175l-11 -105q26 9 58 9q69 0 110 -31.5t41 -91.5q0 -62 -43 -100t-120 -38z" glyph-name="five.ss13"/><glyph d="M105 0h690v690h-690v-690zM434 136q-78 0 -119.5 52t-41.5 138q0 101 50 164.5t143 63.5q59 0 102 -26l-26 -48q-36 18 -75 18q-68 0 -99 -45.5t-30 -116.5q14 29 43 45t66 16q56 0 94 -34.5t38 -90.5q0 -59 -40 -97.5t-105 -38.5zM432 188q37 0 61 22.5t24 57.5 q0 34 -23.5 55.5t-60.5 21.5t-61.5 -21.5t-24.5 -55.5t24 -57t61 -23z" glyph-name="six.ss13"/><glyph d="M105 0h690v690h-690v-690zM422 139l-71 12l156 337h-210v57h303l5 -5z" glyph-name="seven.ss13"/><glyph d="M105 0h690v690h-690v-690zM450 136q-66 0 -109 31.5t-43 86.5q0 37 22 62.5t60 37.5q-68 28 -68 92q0 46 39 77t99 31t99 -31t39 -77q0 -64 -68 -92q38 -12 60 -37.5t22 -62.5q0 -55 -43 -86.5t-109 -31.5zM450 189q40 0 65 18t25 50q0 31 -25 49.5t-65 18.5t-65 -18.5 t-25 -49.5t25.5 -49.5t64.5 -18.5zM450 377q34 0 56.5 18t22.5 44t-22.5 44t-56.5 18t-56.5 -18t-22.5 -44t22.5 -44t56.5 -18z" glyph-name="eight.ss13"/><glyph d="M105 0h690v690h-690v-690zM466 554q78 0 119.5 -52t41.5 -138q0 -101 -50 -164.5t-143 -63.5q-59 0 -102 26l26 48q36 -18 75 -18q68 0 99 45.5t30 116.5q-14 -29 -43 -45t-66 -16q-56 0 -94 34.5t-38 90.5q0 59 40 97.5t105 38.5zM468 502q-37 0 -61 -22.5t-24 -57.5 q0 -34 23.5 -55.5t60.5 -21.5t61.5 21.5t24.5 55.5t-24 57t-61 23z" glyph-name="nine.ss13"/><glyph d="M310 294q-21 0 -36 15t-15 37t15 36.5t36 14.5q22 0 37 -14.5t15 -36.5t-15 -37t-37 -15zM310 -8q-69 0 -122 29t-84.5 79t-47 112t-15.5 133t15.5 133t47 112t84.5 79t122 29t122 -29t84.5 -79t47 -112t15.5 -133t-15.5 -133t-47 -112t-84.5 -79t-122 -29zM310 62 q93 0 138 80.5t45 202.5t-45 202.5t-138 80.5t-138 -80.5t-45 -202.5t45 -202.5t138 -80.5z" glyph-name="zero.pnum.zero" horiz-adv-x="620"/><glyph d="M342 235q-20 0 -33 13.5t-13 32.5t13 32t33 13q19 0 32 -13t13 -32t-13 -32.5t-32 -13.5zM342 -12q-135 0 -211 86.5t-76 207.5t75.5 205.5t211.5 84.5q135 0 211 -84.5t76 -205.5t-76 -207.5t-211 -86.5zM342 56q97 0 150 67t53 159t-52.5 157t-150.5 65t-150.5 -65 t-52.5 -157q0 -93 52.5 -159.5t150.5 -66.5z" glyph-name="zero.oldstyle.zero" horiz-adv-x="683"/><glyph d="M190 -9q-81 0 -122.5 60.5t-41.5 148.5t41.5 148.5t122.5 60.5t122.5 -60.5t41.5 -148.5t-41.5 -148.5t-122.5 -60.5zM190 48q49 0 72.5 43t23.5 109t-23.5 109t-72.5 43t-72.5 -43t-23.5 -109t23.5 -109t72.5 -43z" glyph-name="zero.dnom" horiz-adv-x="380"/><glyph d="M65 266l-27 51l148 83h56v-343h103l-7 -57h-276v57h112v272z" glyph-name="one.dnom" horiz-adv-x="380"/><glyph d="M48 0v57l120 88q94 68 94 128q0 37 -28.5 58.5t-73.5 21.5q-48 0 -96 -30l-30 46q66 42 137 42q72 0 115.5 -34t43.5 -95q0 -86 -109 -166l-77 -59h192l-6 -57h-282z" glyph-name="two.dnom" horiz-adv-x="380"/><glyph d="M171 -8q-76 0 -138 38l32 51q45 -30 101 -30q44 0 70.5 17t26.5 50q0 58 -92 58h-60l7 57h55q37 0 58.5 16.5t21.5 42.5q0 30 -24.5 44t-63.5 14q-48 0 -91 -24l-28 51q59 32 126 32q68 0 110.5 -28.5t42.5 -80.5q0 -37 -22 -61.5t-55 -33.5q35 -6 60.5 -28t25.5 -66 q0 -56 -43 -87.5t-120 -31.5z" glyph-name="three.dnom" horiz-adv-x="380"/><glyph d="M34 88l-4 5l104 312l69 -10l-86 -250h102v93l69 11v-104h64l-7 -57h-57v-88h-69v88h-185z" glyph-name="four.dnom" horiz-adv-x="380"/><glyph d="M172 -9q-76 0 -131 38l28 46q51 -30 100 -30q45 0 72.5 22.5t27.5 57.5q0 36 -30 54.5t-74 18.5q-48 0 -96 -21l-4 2l25 221h229l-7 -52h-175l-11 -105q25 9 58 9q69 0 110 -31.5t41 -91.5q0 -62 -43 -100t-120 -38z" glyph-name="five.dnom" horiz-adv-x="380"/><glyph d="M200 -9q-78 0 -119.5 52t-41.5 138q0 101 50 164.5t143 63.5q59 0 102 -26l-26 -48q-36 18 -75 18q-68 0 -99 -45.5t-30 -116.5q14 29 43 45t66 16q56 0 94 -34.5t38 -90.5q0 -59 -40 -97.5t-105 -38.5zM198 43q37 0 61 22.5t24 57.5q0 34 -23.5 55.5t-60.5 21.5 t-61.5 -21.5t-24.5 -55.5t24 -57t61 -23z" glyph-name="six.dnom" horiz-adv-x="380"/><glyph d="M162 -6l-71 12l156 337h-210v57h303l5 -5z" glyph-name="seven.dnom" horiz-adv-x="380"/><glyph d="M190 -9q-66 0 -109 31.5t-43 86.5q0 37 22 62.5t60 37.5q-68 28 -68 92q0 46 39 77t99 31t99 -31t39 -77q0 -64 -68 -92q38 -12 60 -37.5t22 -62.5q0 -55 -43 -86.5t-109 -31.5zM190 44q40 0 65 18t25 50q0 31 -25 49.5t-65 18.5t-65 -18.5t-25 -49.5t25.5 -49.5 t64.5 -18.5zM190 232q34 0 56.5 18t22.5 44t-22.5 44t-56.5 18t-56.5 -18t-22.5 -44t22.5 -44t56.5 -18z" glyph-name="eight.dnom" horiz-adv-x="380"/><glyph d="M180 409q78 0 119.5 -52t41.5 -138q0 -101 -50 -164.5t-143 -63.5q-59 0 -102 26l26 48q36 -18 75 -18q68 0 99 45.5t30 116.5q-14 -29 -43 -45t-66 -16q-56 0 -94 34.5t-38 90.5q0 59 40 97.5t105 38.5zM182 357q-37 0 -61 -22.5t-24 -57.5q0 -34 23.5 -55.5t60.5 -21.5 t61.5 21.5t24.5 55.5t-24 57t-61 23z" glyph-name="nine.dnom" horiz-adv-x="380"/><glyph d="M190 284q-81 0 -122.5 60.5t-41.5 148.5t41.5 148.5t122.5 60.5t122.5 -60.5t41.5 -148.5t-41.5 -148.5t-122.5 -60.5zM190 341q49 0 72.5 43t23.5 109t-23.5 109t-72.5 43t-72.5 -43t-23.5 -109t23.5 -109t72.5 -43z" glyph-name="zero.numr" horiz-adv-x="380"/><glyph d="M65 556l-27 51l148 83h56v-343h103l-7 -57h-276v57h112v272z" glyph-name="one.numr" horiz-adv-x="380"/><glyph d="M48 290v57l120 88q94 68 94 128q0 37 -28.5 58.5t-73.5 21.5q-48 0 -96 -30l-30 46q66 42 137 42q72 0 115.5 -34t43.5 -95q0 -86 -109 -166l-77 -59h192l-6 -57h-282z" glyph-name="two.numr" horiz-adv-x="380"/><glyph d="M171 282q-76 0 -138 38l32 51q45 -30 101 -30q44 0 70.5 17t26.5 50q0 58 -92 58h-60l7 57h55q37 0 58.5 16.5t21.5 42.5q0 30 -24.5 44t-63.5 14q-48 0 -91 -24l-28 51q59 32 126 32q68 0 110.5 -28.5t42.5 -80.5q0 -37 -22 -61.5t-55 -33.5q35 -6 60.5 -28t25.5 -66 q0 -56 -43 -87.5t-120 -31.5z" glyph-name="three.numr" horiz-adv-x="380"/><glyph d="M34 378l-4 5l104 312l69 -10l-86 -250h102v93l69 11v-104h64l-7 -57h-57v-88h-69v88h-185z" glyph-name="four.numr" horiz-adv-x="380"/><glyph d="M172 281q-76 0 -131 38l28 46q51 -30 100 -30q45 0 72.5 22.5t27.5 57.5q0 36 -30 54.5t-74 18.5q-48 0 -96 -21l-4 2l25 221h229l-7 -52h-175l-11 -105q26 9 58 9q69 0 110 -31.5t41 -91.5q0 -62 -43 -100t-120 -38z" glyph-name="five.numr" horiz-adv-x="380"/><glyph d="M200 281q-78 0 -119.5 52t-41.5 138q0 101 50 164.5t143 63.5q59 0 102 -26l-26 -48q-36 18 -75 18q-68 0 -99 -45.5t-30 -116.5q14 29 43 45t66 16q56 0 94 -34.5t38 -90.5q0 -59 -40 -97.5t-105 -38.5zM198 333q37 0 61 22.5t24 57.5q0 34 -23.5 55.5t-60.5 21.5 t-61.5 -21.5t-24.5 -55.5t24 -57t61 -23z" glyph-name="six.numr" horiz-adv-x="380"/><glyph d="M162 284l-71 12l156 337h-210v57h303l5 -5z" glyph-name="seven.numr" horiz-adv-x="380"/><glyph d="M190 281q-66 0 -109 31.5t-43 86.5q0 37 22 62.5t60 37.5q-68 28 -68 92q0 46 39 77t99 31t99 -31t39 -77q0 -64 -68 -92q38 -12 60 -37.5t22 -62.5q0 -55 -43 -86.5t-109 -31.5zM190 334q40 0 65 18t25 50q0 31 -25 49.5t-65 18.5t-65 -18.5t-25 -49.5t25.5 -49.5 t64.5 -18.5zM190 522q34 0 56.5 18t22.5 44t-22.5 44t-56.5 18t-56.5 -18t-22.5 -44t22.5 -44t56.5 -18z" glyph-name="eight.numr" horiz-adv-x="380"/><glyph d="M180 699q78 0 119.5 -52t41.5 -138q0 -101 -50 -164.5t-143 -63.5q-59 0 -102 26l26 48q36 -18 75 -18q68 0 99 45.5t30 116.5q-14 -29 -43 -45t-66 -16q-56 0 -94 34.5t-38 90.5q0 59 40 97.5t105 38.5zM182 647q-37 0 -61 -22.5t-24 -57.5q0 -34 23.5 -55.5t60.5 -21.5 t61.5 21.5t24.5 55.5t-24 57t-61 23z" glyph-name="nine.numr" horiz-adv-x="380"/><glyph d="M159 513l8 -507l-84 -12l8 519h68zM126 698q26 0 42 -16.5t16 -40.5q0 -25 -16 -41.5t-42 -16.5q-25 0 -41 17t-16 41t16 40.5t41 16.5z" glyph-name="exclamdown.case" horiz-adv-x="253"/><glyph d="M279 307q-153 -21 -153 -131q0 -56 38 -87t98 -31q71 0 137 43l30 -59q-82 -54 -180 -54q-90 0 -148.5 45t-58.5 134q0 143 169 192v154h68v-206zM245 698q26 0 42 -16.5t16 -40.5q0 -25 -16 -41.5t-42 -16.5t-41.5 16.5t-15.5 41.5t15.5 41t41.5 16z" glyph-name="questiondown.case" horiz-adv-x="463"/><glyph d="M7 -137l218 964h84l-218 -964h-84z" glyph-name="slash.case" horiz-adv-x="356"/><glyph d="M265 -137l-218 964h84l218 -964h-84z" glyph-name="backslash.case" horiz-adv-x="356"/><glyph d="M-7 321q-26 0 -42 16.5t-16 40.5t16 40.5t42 16.5t41.5 -16t15.5 -41t-15.5 -41t-41.5 -16z" glyph-name="glyph581" horiz-adv-x="69"/><glyph d="M-137 322q-25 0 -41 17t-16 41t16 40.5t41 16.5q26 0 42 -16.5t16 -40.5q0 -25 -16 -41.5t-42 -16.5z" glyph-name="glyph582" horiz-adv-x="0"/><glyph d="M77 291v68h329l-9 -68h-320z" glyph-name="hyphen.case" horiz-adv-x="482"/><glyph d="M77 311v68h449l-9 -68h-440z" glyph-name="endash.case" horiz-adv-x="602"/><glyph d="M77 311v68h559l-9 -68h-550z" glyph-name="emdash.case" horiz-adv-x="712"/><glyph d="M199 -137q-75 110 -113 237.5t-38 244.5t38 244.5t113 237.5h90q-157 -232 -157 -482t157 -482h-90z" glyph-name="parenleft.case" horiz-adv-x="323"/><glyph d="M34 -137q157 232 157 482t-157 482h90q75 -110 113 -237.5t38 -244.5t-38 -244.5t-113 -237.5h-90z" glyph-name="parenright.case" horiz-adv-x="323"/><glyph d="M271 -137q-94 0 -135.5 49.5t-23.5 144.5l21 92q15 70 -9 107t-90 55v68q66 18 90 55t9 107l-21 92q-18 95 23.5 144.5t135.5 49.5h65l-9 -68h-36q-59 0 -84.5 -31t-11.5 -93l22 -117q15 -70 -14.5 -113.5t-87.5 -58.5v-2q58 -15 87.5 -58.5t14.5 -113.5l-22 -117 q-14 -62 11.5 -93t84.5 -31h45l-9 -68h-56z" glyph-name="braceleft.case" horiz-adv-x="371"/><glyph d="M100 827q94 0 135.5 -49.5t23.5 -144.5l-21 -92q-15 -70 9 -107t90 -55v-68q-66 -18 -90 -55t-9 -107l21 -92q18 -95 -23.5 -144.5t-135.5 -49.5h-65l9 68h36q59 0 84.5 31t11.5 93l-22 117q-15 70 14.5 113.5t87.5 58.5v2q-58 15 -87.5 58.5t-14.5 113.5l22 117 q14 62 -11.5 93t-84.5 31h-45l9 68h56z" glyph-name="braceright.case" horiz-adv-x="371"/><glyph d="M77 -137v964h217l-9 -68h-124v-828h133l-9 -68h-208z" glyph-name="bracketleft.case" horiz-adv-x="330"/><glyph d="M253 827v-964h-217l9 68h124v828h-133l9 68h208z" glyph-name="bracketright.case" horiz-adv-x="330"/><glyph d="M210 172l-148 173l148 173l50 -42l-112 -131l112 -131zM396 172l-148 173l148 173l50 -42l-112 -131l112 -131z" glyph-name="guillemotleft.case" horiz-adv-x="514"/><glyph d="M304 172l-50 42l112 131l-112 131l50 42l148 -173zM118 172l-50 42l112 131l-112 131l50 42l148 -173z" glyph-name="guillemotright.case" horiz-adv-x="514"/><glyph d="M210 172l-148 173l148 173l50 -42l-112 -131l112 -131z" glyph-name="guilsinglleft.case" horiz-adv-x="327"/><glyph d="M117 172l-50 42l112 131l-112 131l50 42l148 -173z" glyph-name="guilsinglright.case" horiz-adv-x="327"/><glyph d="M36 -174q61 36 93.5 83.5t42.5 123.5l24 165h-145l8 69h146l14 96q29 209 227 209q59 0 108 -21l-32 -64q-34 15 -76 15q-125 0 -144 -142l-13 -93h199l-18 -69h-191l-23 -166q-13 -97 -54.5 -160t-132.5 -108z" glyph-name="florin.oldstyle" horiz-adv-x="587"/><glyph d="M231 543q29 209 227 209q59 0 108 -21l-31 -64q-34 15 -76 15q-125 0 -145 -142l-20 -146h200l-18 -68h-192l-76 -550h-84l77 550h-144l8 68h145z" glyph-name="florin.tnum" horiz-adv-x="620"/><glyph d="M77 -137v964h84v-964h-84z" glyph-name="bar.case" horiz-adv-x="238"/><glyph d="M77 -137v421h84v-421h-84zM77 406v421h84v-421h-84z" glyph-name="brokenbar.case" horiz-adv-x="238"/><glyph d="M241 0v96q-89 16 -142.5 83.5t-53.5 165.5t53.5 165.5t142.5 83.5v90l83 12v-98q66 -7 116 -38l-30 -63q-51 31 -106 31q-79 0 -126 -52t-47 -131t47 -131t126 -52q55 0 106 31l30 -63q-50 -31 -116 -38v-92h-83z" glyph-name="cent.pnum" horiz-adv-x="479"/><glyph d="M276 157q-66 0 -114 34l-84 -84l-40 40l84 84q-33 49 -33 114t33 114l-84 84l40 40l84 -84q48 34 114 34q68 0 114 -34l84 84l40 -40l-84 -84q33 -49 33 -114t-33 -114l84 -84l-40 -40l-84 84q-48 -34 -114 -34zM276 208q60 0 97 38.5t37 98.5t-37 98.5t-97 38.5 q-59 0 -96.5 -38.5t-37.5 -98.5t37.5 -98.5t96.5 -38.5z" glyph-name="currency.pnum" horiz-adv-x="552"/><glyph d="M269 -124v126q-137 5 -236 106l39 47q90 -86 197 -90v269l-25 6q-162 40 -162 170q0 78 52 122.5t135 53.5v114l58 7v-119q111 -5 193 -66l-35 -51q-68 49 -158 55v-235l15 -4q80 -21 127 -61t47 -120q0 -83 -52 -136t-137 -65v-129h-58zM161 514q0 -43 26.5 -67.5 t81.5 -40.5v217q-50 -8 -79 -35.5t-29 -73.5zM327 70q52 12 81 47t29 83q0 49 -29 76t-81 43v-249z" glyph-name="dollar.pnum" horiz-adv-x="563"/><glyph d="M438 -12q-111 0 -190.5 66.5t-108.5 178.5h-98v65h87q-2 30 -2 47t2 47h-87v65h98q29 112 108.5 178.5t190.5 66.5q75 0 139 -28l-23 -66q-50 24 -108 24q-79 0 -136 -47.5t-82 -127.5h277l-19 -65h-271q-3 -23 -3 -47q0 -25 3 -47h245l-18 -65h-214q25 -80 82 -127.5 t136 -47.5q58 0 108 24l23 -66q-64 -28 -139 -28z" glyph-name="Euro.pnum" horiz-adv-x="615"/><glyph d="M40 124v65h93v94h-93v65h93v342h205q106 0 171 -54.5t65 -149.5q0 -94 -65 -148.5t-171 -54.5h-121v-94h193l-9 -65h-184v-124h-84v124h-93zM217 351h122q69 0 110 36.5t41 98.5q0 63 -41 99.5t-110 36.5h-122v-271z" glyph-name="uni20BD.pnum" horiz-adv-x="611"/><glyph d="M42 68q121 84 121 205q0 19 -3 35h-118v65h100q-3 6 -11 24.5t-11 27t-8 24t-7 29.5t-2 30q0 85 63.5 139.5t169.5 54.5q97 0 170 -45l-28 -62q-65 37 -135 37q-74 0 -115 -37t-41 -98q0 -17 4 -35t8 -28t13.5 -32t12.5 -29h210l-9 -65h-182q3 -16 3 -36 q0 -68 -35 -121.5t-77 -82.5h387l-10 -68h-470v68z" glyph-name="sterling.pnum" horiz-adv-x="559"/><glyph d="M278 0v130h-198v66h198v93h-198v65h161l-207 329l85 14l202 -327l201 327l85 -14l-207 -329h166l-9 -65h-195v-93h204l-9 -66h-195v-130h-84z" glyph-name="yen.pnum" horiz-adv-x="639"/><glyph d="M241 -65v96q-89 16 -142.5 83.5t-53.5 165.5t53.5 165.5t142.5 83.5v90l83 12v-98q66 -7 116 -38l-30 -63q-51 31 -106 31q-79 0 -126 -52t-47 -131t47 -131t126 -52q55 0 106 31l30 -63q-50 -31 -116 -38v-92h-83z" glyph-name="cent.oldstyle" horiz-adv-x="479"/><glyph d="M276 92q-66 0 -114 34l-84 -84l-40 40l84 84q-33 49 -33 114t33 114l-84 84l40 40l84 -84q48 34 114 34q68 0 114 -34l84 84l40 -40l-84 -84q33 -49 33 -114t-33 -114l84 -84l-40 -40l-84 84q-48 -34 -114 -34zM276 143q60 0 97 38.5t37 98.5t-37 98.5t-97 38.5 q-59 0 -96.5 -38.5t-37.5 -98.5t37.5 -98.5t96.5 -38.5z" glyph-name="currency.oldstyle" horiz-adv-x="552"/><glyph d="M244 -124v112q-121 5 -210 91l39 45q78 -70 171 -75v217l-20 5q-146 33 -146 146q0 66 46 105t120 48v115l58 10v-123q100 -5 173 -57l-35 -50q-60 41 -138 46v-190l12 -3q71 -16 114 -50.5t43 -103.5q0 -72 -46.5 -117.5t-122.5 -55.5v-115h-58zM155 421 q0 -32 21.5 -52.5t67.5 -33.5v173q-41 -7 -65 -29t-24 -58zM302 54q44 10 68 37.5t24 66.5q0 67 -92 94v-198z" glyph-name="dollar.oldstyle" horiz-adv-x="517"/><glyph d="M421 -12q-104 0 -177.5 50.5t-102.5 137.5h-98v58h85q-3 22 -3 46q0 13 2 39h-84v65h98q29 87 102.5 137.5t177.5 50.5q98 0 178 -46l-29 -61q-66 39 -143 39q-68 0 -119.5 -32t-77.5 -88h254l-18 -65h-254q-3 -19 -3 -39q0 -26 4 -46h229l-16 -58h-196q26 -56 77.5 -88 t119.5 -32q74 0 143 39l29 -62q-80 -45 -178 -45z" glyph-name="Euro.oldstyle" horiz-adv-x="639"/><glyph d="M44 78v65h91v84h-91v65h91v268h239q90 0 141.5 -44.5t51.5 -121.5q0 -78 -51.5 -122.5t-141.5 -44.5h-155v-84h213l-9 -65h-204v-78h-84v78h-91zM219 294h143q54 0 85 26t31 74q0 46 -31 72t-85 26h-143v-198z" glyph-name="uni20BD.oldstyle" horiz-adv-x="611"/><glyph d="M43 68q110 64 110 158l-1 17h-109v68h87q-1 3 -7 15l-8 16t-6.5 15t-6 17.5t-3 17t-1.5 20.5q0 72 59 116t158 44q85 0 159 -35l-28 -62q-58 28 -124 28q-65 0 -102.5 -29t-37.5 -75q0 -8 1.5 -16.5t3 -14.5t5.5 -15.5t6 -13t7.5 -14.5t7.5 -14h194l-10 -68h-161l1 -18 q0 -91 -90 -157h340l-11 -68h-433v68z" glyph-name="sterling.oldstyle" horiz-adv-x="527"/><glyph d="M261 0v85h-188v65h188v85h-188v65h159l-195 258l85 9l181 -241l182 241l85 -9l-195 -258h163l-9 -65h-184v-85h193l-9 -65h-184v-85h-84z" glyph-name="yen.oldstyle" horiz-adv-x="606"/><glyph d="M311 0v96q-89 16 -142.5 83.5t-53.5 165.5t53.5 165.5t142.5 83.5v90l83 12v-98q66 -7 116 -38l-30 -63q-51 31 -106 31q-79 0 -126 -52t-47 -131t47 -131t126 -52q55 0 106 31l30 -63q-50 -31 -116 -38v-92h-83z" glyph-name="cent.tnum" horiz-adv-x="620"/><glyph d="M310 157q-66 0 -114 34l-84 -84l-40 40l84 84q-33 49 -33 114t33 114l-84 84l40 40l84 -84q48 34 114 34q68 0 114 -34l84 84l40 -40l-84 -84q33 -49 33 -114t-33 -114l84 -84l-40 -40l-84 84q-48 -34 -114 -34zM310 208q60 0 97 38.5t37 98.5t-37 98.5t-97 38.5 q-59 0 -96.5 -38.5t-37.5 -98.5t37.5 -98.5t96.5 -38.5z" glyph-name="currency.tnum" horiz-adv-x="620"/><glyph d="M298 -124v126q-137 5 -236 106l39 47q90 -86 197 -90v269l-25 6q-162 40 -162 170q0 78 52 122.5t135 53.5v114l58 7v-119q111 -5 193 -66l-35 -51q-68 49 -158 55v-235l15 -4q80 -21 127 -61t47 -120q0 -83 -52 -136t-137 -65v-129h-58zM190 514q0 -43 26.5 -67.5 t81.5 -40.5v217q-50 -8 -79 -35.5t-29 -73.5zM356 70q52 12 81 47t29 83q0 49 -29 76t-81 43v-249z" glyph-name="dollar.tnum" horiz-adv-x="620"/><glyph d="M440 -12q-111 0 -190.5 66.5t-108.5 178.5h-98v65h87q-2 30 -2 47t2 47h-87v65h98q29 112 108.5 178.5t190.5 66.5q75 0 139 -28l-23 -66q-50 24 -108 24q-79 0 -136 -47.5t-82 -127.5h277l-19 -65h-271q-3 -23 -3 -47q0 -25 3 -47h245l-18 -65h-214q25 -80 82 -127.5 t136 -47.5q58 0 108 24l23 -66q-64 -28 -139 -28z" glyph-name="Euro.tnum" horiz-adv-x="620"/><glyph d="M44 124v65h93v94h-93v65h93v342h205q106 0 171 -54.5t65 -149.5q0 -94 -65 -148.5t-171 -54.5h-121v-94h193l-9 -65h-184v-124h-84v124h-93zM221 351h122q69 0 110 36.5t41 98.5q0 63 -41 99.5t-110 36.5h-122v-271z" glyph-name="uni20BD.tnum" horiz-adv-x="620"/><glyph d="M73 68q121 84 121 205q0 19 -3 35h-118v65h100q-3 6 -11 24.5t-11 27t-8 24t-7 29.5t-2 30q0 85 63.5 139.5t169.5 54.5q97 0 170 -45l-28 -62q-65 37 -135 37q-74 0 -115 -37t-41 -98q0 -17 4 -35t8 -28t13.5 -32t12.5 -29h210l-9 -65h-182q3 -16 3 -36 q0 -68 -35 -121.5t-77 -82.5h387l-10 -68h-470v68z" glyph-name="sterling.tnum" horiz-adv-x="620"/><glyph d="M269 0v130h-198v66h198v93h-198v65h161l-207 329l85 14l202 -327l201 327l85 -14l-207 -329h166l-9 -65h-195v-93h204l-9 -66h-195v-130h-84z" glyph-name="yen.tnum" horiz-adv-x="620"/><glyph d="M251 97v218h-213v63h213v219h74v-219h213v-63h-213v-218h-74z" glyph-name="plus.pnum" horiz-adv-x="577"/><glyph d="M77 315v63h500v-63h-500z" glyph-name="minus.pnum" horiz-adv-x="653"/><glyph d="M492 97l-205 204l-205 -204l-45 44l205 205l-205 205l45 46l205 -206l205 206l45 -46l-205 -205l205 -205z" glyph-name="multiply.pnum" horiz-adv-x="573"/><glyph d="M40 315v63h500v-63h-500zM290 475q-21 0 -35 14t-14 35t14 35.5t35 14.5t35 -14.5t14 -35.5t-14 -35t-35 -14zM290 120q-21 0 -35 14.5t-14 34.5q0 21 14 35.5t35 14.5t35 -14.5t14 -35.5q0 -20 -14 -34.5t-35 -14.5z" glyph-name="divide.pnum" horiz-adv-x="579"/><glyph d="M51 434v63h500v-63h-500zM51 197v63h500v-63h-500z" glyph-name="equal.pnum" horiz-adv-x="602"/><glyph d="M143 97l44 100h-140v63h168l76 174h-244v63h272l44 100h75l-43 -100h152v-63h-180l-75 -174h255v-63h-283l-43 -100h-78z" glyph-name="notequal.pnum" horiz-adv-x="594"/><glyph d="M44 97v68l416 182l-416 181v69l500 -219v-63z" glyph-name="greater.pnum" horiz-adv-x="582"/><glyph d="M538 97l-500 218v63l500 219v-69l-416 -181l416 -182v-68z" glyph-name="less.pnum" horiz-adv-x="582"/><glyph d="M50 205v60l422 136l-422 136v60l500 -168v-56zM50 97v56h500v-56h-500z" glyph-name="greaterequal.pnum" horiz-adv-x="594"/><glyph d="M544 205l-500 168v56l500 168v-60l-422 -136l422 -136v-60zM44 97v56h500v-56h-500z" glyph-name="lessequal.pnum" horiz-adv-x="595"/><glyph d="M45 372v63h213v162h74v-162h213v-63h-213v-161h-74v161h-213zM45 97v63h500v-63h-500z" glyph-name="plusminus.pnum" horiz-adv-x="590"/><glyph d="M425 134q-34 0 -68 17t-56.5 38t-51 38t-53.5 17q-34 0 -54 -28.5t-22 -75.5h-64q0 84 35 131t95 47q41 0 81 -27.5t77 -55t70 -27.5q35 0 55.5 28.5t22.5 75.5h64q0 -84 -35 -131t-96 -47zM425 372q-34 0 -68 17t-56.5 38t-51 38t-53.5 17q-34 0 -54 -28.5t-22 -75.5 h-64q0 84 35 131t95 47q41 0 81 -27.5t77 -55t70 -27.5q35 0 55.5 28.5t22.5 75.5h64q0 -84 -35 -131t-96 -47z" glyph-name="approxequal.pnum" horiz-adv-x="613"/><glyph d="M428 266q-34 0 -68 17.5t-56.5 38t-51 38t-53.5 17.5q-34 0 -54 -28.5t-22 -75.5h-64q0 83 35 130.5t95 47.5q33 0 65.5 -17.5t55 -38t52 -38t55.5 -17.5q35 0 55.5 28.5t22.5 75.5h64q0 -83 -35 -130.5t-96 -47.5z" glyph-name="asciitilde.pnum" horiz-adv-x="617"/><glyph d="M467 197v237h-426v63h500v-300h-74z" glyph-name="logicalnot.pnum" horiz-adv-x="618"/><glyph d="M251 32v218h-213v63h213v219h74v-219h213v-63h-213v-218h-74z" glyph-name="plus.oldstyle" horiz-adv-x="577"/><glyph d="M77 250v63h500v-63h-500z" glyph-name="minus.oldstyle" horiz-adv-x="653"/><glyph d="M492 32l-205 204l-205 -204l-45 44l205 205l-205 205l45 46l205 -206l205 206l45 -46l-205 -205l205 -205z" glyph-name="multiply.oldstyle" horiz-adv-x="573"/><glyph d="M40 250v63h500v-63h-500zM290 410q-21 0 -35 14t-14 35t14 35.5t35 14.5t35 -14.5t14 -35.5t-14 -35t-35 -14zM290 55q-21 0 -35 14.5t-14 34.5q0 21 14 35.5t35 14.5t35 -14.5t14 -35.5q0 -20 -14 -34.5t-35 -14.5z" glyph-name="divide.oldstyle" horiz-adv-x="579"/><glyph d="M51 369v63h500v-63h-500zM51 132v63h500v-63h-500z" glyph-name="equal.oldstyle" horiz-adv-x="602"/><glyph d="M143 32l44 100h-140v63h168l76 174h-244v63h272l44 100h75l-43 -100h152v-63h-180l-75 -174h255v-63h-283l-43 -100h-78z" glyph-name="notequal.oldstyle" horiz-adv-x="594"/><glyph d="M44 32v68l416 182l-416 181v69l500 -219v-63z" glyph-name="greater.oldstyle" horiz-adv-x="582"/><glyph d="M538 32l-500 218v63l500 219v-69l-416 -181l416 -182v-68z" glyph-name="less.oldstyle" horiz-adv-x="582"/><glyph d="M50 140v60l422 136l-422 136v60l500 -168v-56zM50 32v56h500v-56h-500z" glyph-name="greaterequal.oldstyle" horiz-adv-x="594"/><glyph d="M544 140l-500 168v56l500 168v-60l-422 -136l422 -136v-60zM44 32v56h500v-56h-500z" glyph-name="lessequal.oldstyle" horiz-adv-x="595"/><glyph d="M45 307v63h213v162h74v-162h213v-63h-213v-161h-74v161h-213zM45 32v63h500v-63h-500z" glyph-name="plusminus.oldstyle" horiz-adv-x="590"/><glyph d="M425 69q-34 0 -68 17t-56.5 38t-51 38t-53.5 17q-34 0 -54 -28.5t-22 -75.5h-64q0 84 35 131t95 47q41 0 81 -27.5t77 -55t70 -27.5q35 0 55.5 28.5t22.5 75.5h64q0 -84 -35 -131t-96 -47zM425 307q-34 0 -68 17t-56.5 38t-51 38t-53.5 17q-34 0 -54 -28.5t-22 -75.5h-64 q0 84 35 131t95 47q41 0 81 -27.5t77 -55t70 -27.5q35 0 55.5 28.5t22.5 75.5h64q0 -84 -35 -131t-96 -47z" glyph-name="approxequal.oldstyle" horiz-adv-x="613"/><glyph d="M428 201q-34 0 -68 17.5t-56.5 38t-51 38t-53.5 17.5q-34 0 -54 -28.5t-22 -75.5h-64q0 83 35 130.5t95 47.5q33 0 65.5 -17.5t55 -38t52 -38t55.5 -17.5q35 0 55.5 28.5t22.5 75.5h64q0 -83 -35 -130.5t-96 -47.5z" glyph-name="asciitilde.oldstyle" horiz-adv-x="617"/><glyph d="M467 132v237h-426v63h500v-300h-74z" glyph-name="logicalnot.oldstyle" horiz-adv-x="618"/><glyph d="M450 -12q-153 0 -254.5 104.5t-101.5 252.5t101.5 252.5t254.5 104.5t254.5 -104.5t101.5 -252.5t-101.5 -252.5t-254.5 -104.5zM450 13q141 0 234 98t93 234t-93 234t-234 98t-234 -98t-93 -234t93 -234t234 -98zM268 329l-19 18l201 202l202 -202l-20 -18l-167 165 v-353h-29v354z" glyph-name="arrowup.ss14"/><glyph d="M450 -12q-153 0 -254.5 104.5t-101.5 252.5t101.5 252.5t254.5 104.5t254.5 -104.5t101.5 -252.5t-101.5 -252.5t-254.5 -104.5zM450 13q141 0 234 98t93 234t-93 234t-234 98t-234 -98t-93 -234t93 -234t234 -98zM309 463v26l284 1v-286l-26 2l-2 235l-249 -250l-21 20 l251 251z" glyph-name="uni2197.ss14"/><glyph d="M450 -12q-153 0 -254.5 104.5t-101.5 252.5t101.5 252.5t254.5 104.5t254.5 -104.5t101.5 -252.5t-101.5 -252.5t-254.5 -104.5zM450 13q141 0 234 98t93 234t-93 234t-234 98t-234 -98t-93 -234t93 -234t234 -98zM434 527l18 19l202 -201l-202 -202l-18 20l165 167h-353 v29h354z" glyph-name="arrowright.ss14"/><glyph d="M450 -12q-153 0 -254.5 104.5t-101.5 252.5t101.5 252.5t254.5 104.5t254.5 -104.5t101.5 -252.5t-101.5 -252.5t-254.5 -104.5zM450 13q141 0 234 98t93 234t-93 234t-234 98t-234 -98t-93 -234t93 -234t234 -98zM568 486h26l1 -284h-286l2 26l235 2l-250 249l20 21 l251 -251z" glyph-name="uni2198.ss14"/><glyph d="M450 -12q-153 0 -254.5 104.5t-101.5 252.5t101.5 252.5t254.5 104.5t254.5 -104.5t101.5 -252.5t-101.5 -252.5t-254.5 -104.5zM450 13q141 0 234 98t93 234t-93 234t-234 98t-234 -98t-93 -234t93 -234t234 -98zM632 361l19 -18l-201 -202l-202 202l20 18l167 -165v353 h29v-354z" glyph-name="arrowdown.ss14"/><glyph d="M450 -12q-153 0 -254.5 104.5t-101.5 252.5t101.5 252.5t254.5 104.5t254.5 -104.5t101.5 -252.5t-101.5 -252.5t-254.5 -104.5zM450 13q141 0 234 98t93 234t-93 234t-234 98t-234 -98t-93 -234t93 -234t234 -98zM591 227v-26l-284 -1v286l26 -2l2 -235l249 250l21 -20 l-251 -251z" glyph-name="uni2199.ss14"/><glyph d="M450 -12q-153 0 -254.5 104.5t-101.5 252.5t101.5 252.5t254.5 104.5t254.5 -104.5t101.5 -252.5t-101.5 -252.5t-254.5 -104.5zM450 13q141 0 234 98t93 234t-93 234t-234 98t-234 -98t-93 -234t93 -234t234 -98zM466 163l-18 -19l-202 201l202 202l18 -20l-165 -167 h353v-29h-354z" glyph-name="arrowleft.ss14"/><glyph d="M450 -12q-153 0 -254.5 104.5t-101.5 252.5t101.5 252.5t254.5 104.5t254.5 -104.5t101.5 -252.5t-101.5 -252.5t-254.5 -104.5zM450 13q141 0 234 98t93 234t-93 234t-234 98t-234 -98t-93 -234t93 -234t234 -98zM332 204h-26l-1 284h286l-2 -26l-235 -2l250 -249 l-20 -21l-251 251z" glyph-name="uni2196.ss14"/><glyph d="M450 -12q153 0 254.5 104.5t101.5 252.5t-101.5 252.5t-254.5 104.5t-254.5 -104.5t-101.5 -252.5t101.5 -252.5t254.5 -104.5zM268 329l-19 18l201 202l202 -202l-20 -18l-167 165v-353h-29v354zM436 495v22h6l-2 2h20l-2 -2h7v-23l-15 15z" glyph-name="arrowup.ss15"/><glyph d="M450 -12q153 0 254.5 104.5t101.5 252.5t-101.5 252.5t-254.5 104.5t-254.5 -104.5t-101.5 -252.5t101.5 -252.5t254.5 -104.5zM309 463v26l284 1v-286l-26 2l-2 235l-249 -250l-21 20l251 251zM546 462l15 15l4 -4v3l14 -14h-3l5 -5l-16 -16v21h-19z" glyph-name="uni2197.ss15"/><glyph d="M450 -12q153 0 254.5 104.5t101.5 252.5t-101.5 252.5t-254.5 104.5t-254.5 -104.5t-101.5 -252.5t101.5 -252.5t254.5 -104.5zM434 527l18 19l202 -201l-202 -202l-18 20l165 167h-353v29h354zM599 330l15 15l-14 14h22v-6l2 2v-20l-2 2v-7h-23z" glyph-name="arrowright.ss15"/><glyph d="M450 -12q153 0 254.5 104.5t101.5 252.5t-101.5 252.5t-254.5 104.5t-254.5 -104.5t-101.5 -252.5t101.5 -252.5t254.5 -104.5zM568 486h26l1 -284h-286l2 26l235 2l-250 249l20 21l251 -251zM546 230h21v19l15 -15l-4 -4h3l-14 -14v3l-5 -5z" glyph-name="uni2198.ss15"/><glyph d="M450 -12q153 0 254.5 104.5t101.5 252.5t-101.5 252.5t-254.5 104.5t-254.5 -104.5t-101.5 -252.5t101.5 -252.5t254.5 -104.5zM632 361l19 -18l-201 -202l-202 202l20 18l167 -165v353h29v-354zM435 173v23l15 -15l14 14v-22h-6l2 -2h-20l2 2h-7z" glyph-name="arrowdown.ss15"/><glyph d="M450 -12q153 0 254.5 104.5t101.5 252.5t-101.5 252.5t-254.5 104.5t-254.5 -104.5t-101.5 -252.5t101.5 -252.5t254.5 -104.5zM591 227v-26l-284 -1v286l26 -2l2 -235l249 250l21 -20l-251 -251zM319 233l16 16v-21h19l-15 -15l-4 4v-3l-14 14h3z" glyph-name="uni2199.ss15"/><glyph d="M450 -12q153 0 254.5 104.5t101.5 252.5t-101.5 252.5t-254.5 104.5t-254.5 -104.5t-101.5 -252.5t101.5 -252.5t254.5 -104.5zM466 163l-18 -19l-202 201l202 202l18 -20l-165 -167h353v-29h-354zM276 335v20l2 -2v7h23l-15 -15l14 -14h-22v6z" glyph-name="arrowleft.ss15"/><glyph d="M450 -12q153 0 254.5 104.5t101.5 252.5t-101.5 252.5t-254.5 104.5t-254.5 -104.5t-101.5 -252.5t101.5 -252.5t254.5 -104.5zM332 204h-26l-1 284h286l-2 -26l-235 -2l250 -249l-20 -21l-251 251zM318 456l4 4h-3l14 14v-3l5 5l16 -16h-21v-19z" glyph-name="uni2196.ss15"/><glyph d="M105 0v690h690v-690h-690zM135 26h630v638h-630v-638zM268 329l-19 18l201 202l202 -202l-20 -18l-167 165v-353h-29v354z" glyph-name="arrowup.ss16"/><glyph d="M105 0v690h690v-690h-690zM135 26h630v638h-630v-638zM309 463v26l284 1v-286l-26 2l-2 235l-249 -250l-21 20l251 251z" glyph-name="uni2197.ss16"/><glyph d="M105 0v690h690v-690h-690zM135 26h630v638h-630v-638zM434 527l18 19l202 -201l-202 -202l-18 20l165 167h-353v29h354z" glyph-name="arrowright.ss16"/><glyph d="M105 0v690h690v-690h-690zM135 26h630v638h-630v-638zM568 486h26l1 -284h-286l2 26l235 2l-250 249l20 21l251 -251z" glyph-name="uni2198.ss16"/><glyph d="M105 0v690h690v-690h-690zM135 26h630v638h-630v-638zM632 361l19 -18l-201 -202l-202 202l20 18l167 -165v353h29v-354z" glyph-name="arrowdown.ss16"/><glyph d="M105 0v690h690v-690h-690zM135 26h630v638h-630v-638zM591 227v-26l-284 -1v286l26 -2l2 -235l249 250l21 -20l-251 -251z" glyph-name="uni2199.ss16"/><glyph d="M105 0v690h690v-690h-690zM135 26h630v638h-630v-638zM466 163l-18 -19l-202 201l202 202l18 -20l-165 -167h353v-29h-354z" glyph-name="arrowleft.ss16"/><glyph d="M105 0v690h690v-690h-690zM135 26h630v638h-630v-638zM332 204h-26l-1 284h286l-2 -26l-235 -2l250 -249l-20 -21l-251 251z" glyph-name="uni2196.ss16"/><glyph d="M105 0h690v690h-690v-690zM268 329l-19 18l201 202l202 -202l-20 -18l-167 165v-353h-29v354zM436 495v22h6l-2 2h20l-2 -2h7v-23l-15 15z" glyph-name="arrowup.ss17"/><glyph d="M105 0h690v690h-690v-690zM309 463v26l284 1v-286l-26 2l-2 235l-249 -250l-21 20l251 251zM546 462l15 15l4 -4v3l14 -14h-3l5 -5l-16 -16v21h-19z" glyph-name="uni2197.ss17"/><glyph d="M105 0h690v690h-690v-690zM434 527l18 19l202 -201l-202 -202l-18 20l165 167h-353v29h354zM599 330l15 15l-14 14h22v-6l2 2v-20l-2 2v-7h-23z" glyph-name="arrowright.ss17"/><glyph d="M105 0h690v690h-690v-690zM568 486h26l1 -284h-286l2 26l235 2l-250 249l20 21l251 -251zM546 230h21v19l15 -15l-4 -4h3l-14 -14v3l-5 -5z" glyph-name="uni2198.ss17"/><glyph d="M105 0h690v690h-690v-690zM632 361l19 -18l-201 -202l-202 202l20 18l167 -165v353h29v-354zM435 173v23l15 -15l14 14v-22h-6l2 -2h-20l2 2h-7z" glyph-name="arrowdown.ss17"/><glyph d="M105 0h690v690h-690v-690zM591 227v-26l-284 -1v286l26 -2l2 -235l249 250l21 -20l-251 -251zM319 233l16 16v-21h19l-15 -15l-4 4v-3l-14 14h3z" glyph-name="uni2199.ss17"/><glyph d="M105 0h690v690h-690v-690zM466 163l-18 -19l-202 201l202 202l18 -20l-165 -167h353v-29h-354zM276 335v20l2 -2v7h23l-15 -15l14 -14h-22v6z" glyph-name="arrowleft.ss17"/><glyph d="M105 0h690v690h-690v-690zM332 204h-26l-1 284h286l-2 -26l-235 -2l250 -249l-20 -21l-251 251zM318 456l4 4h-3l14 14v-3l5 5l16 -16h-21v-19z" glyph-name="uni2196.ss17"/><glyph d="M157 543q-43 0 -72 28.5t-29 69.5t29 69.5t72 28.5q37 0 64 -21l97 61l31 -57l-95 -54q4 -11 4 -27q0 -41 -29 -69.5t-72 -28.5zM157 585q24 0 39 16t15 40t-15 39.5t-39 15.5t-39 -15.5t-15 -39.5t15 -40t39 -16z" glyph-name="uni030A_acutecomb.ccmp" horiz-adv-x="0"/><glyph d="M100 226v68h440l-9 -68h-431z" glyph-name="uni0335.case" horiz-adv-x="0"/><glyph d="M157 -76l-57 42l534 761l57 -42z" glyph-name="uni0338.case" horiz-adv-x="0"/></font>
</defs>
</svg>
