<?xml version="1.0" standalone="no"?>
<!DOCTYPE svg PUBLIC "-//W3C//DTD SVG 1.1//EN" "http://www.w3.org/Graphics/SVG/1.1/DTD/svg11.dtd">
<svg version="1.1" xmlns="http://www.w3.org/2000/svg" xmlns:xlink="http://www.w3.org/1999/xlink"><metadata>This SVG WebFont was generated by YouWorkForThem.
</metadata><defs><font horiz-adv-x="900" id="ywftsvg"><font-face ascent="800" bbox="-210 -325 1316 1016" cap-height="699" descent="-200" font-family="" font-stretch="normal" font-weight="500" panose-1="0 0 0 0 0 0 0 0 0 0" underline-position="0" underline-thickness="0" unicode-range="U+0020-FB02" units-per-em="1000" x-height="486"/><missing-glyph d="M394 740v-960h-305v960h305zM320 85h-160v-108h160v108zM288 54v-46h-96v46h96zM320 251h-96v-53h32v22h32v-45h-96v76h-32v-108h160v108zM320 368h-32v-63h-128v-33h160v96zM320 426h-160v-32h64v-35h-64v-32h96v67h64v32zM224 519v-34h-32v34h32zM256 552h-96v-100h160 v33h-64v67zM320 676h-159v-32h63v-36h-64v-31h160v31h-64v36h64v32zM320 -45h-160v-32h68l-68 -45v-32h160v32h-98l67 45h31v32z" horiz-adv-x="480"/><glyph d="M121 550q0 99 49 151t141 52q36 0 70 -8v-101q-23 7 -44 7q-93 0 -93 -107v-58h284l61 9v-495h-123v387h-222v-387h-123v387h-86v99h86v64zM528 576q-34 0 -55.5 22t-21.5 55t21.5 55t55.5 22t55.5 -22t21.5 -55t-21.5 -55t-55.5 -22z" glyph-name="uniFB01" horiz-adv-x="656" unicode="fi"/><glyph d="M121 550q0 99 49 151t141 52q43 0 76 -10v-102q-21 10 -50 10q-93 0 -93 -107v-58h222v245l123 18v-582q0 -75 60 -75q20 0 37 7l25 -93q-41 -17 -91 -17q-154 0 -154 180v218h-222v-387h-123v387h-86v99h86v64z" glyph-name="uniFB02" horiz-adv-x="742" unicode="fl"/><glyph d="M121 550q0 99 49 151t141 52q43 0 76 -10v-102q-21 10 -50 10q-93 0 -93 -107v-58h225v64q0 99 49 151t141 52q57 0 102 -21l-30 -93q-24 12 -51 12q-88 0 -88 -107v-58h135l-12 -99h-123v-387h-123v387h-225v-387h-123v387h-86v99h86v64z" glyph-name="f_f.liga" horiz-adv-x="759" unicode="ff"/><glyph d="M121 550q0 99 49 151t141 52q43 0 76 -10v-102q-21 10 -50 10q-93 0 -93 -107v-58h220v64q0 99 49 151t141 52q36 0 70 -8v-101q-23 7 -44 7q-93 0 -93 -107v-58h284l61 9v-495h-123v387h-222v-387h-123v387h-220v-387h-123v387h-86v99h86v64zM871 576q-34 0 -55.5 22 t-21.5 55t21.5 55t55.5 22t55.5 -22t21.5 -55t-21.5 -55t-55.5 -22z" glyph-name="f_f_i.liga" horiz-adv-x="999" unicode="ffi"/><glyph d="M121 550q0 99 49 151t141 52q43 0 76 -10v-102q-21 10 -50 10q-93 0 -93 -107v-58h222v64q0 99 49 151t141 52q43 0 76 -10v-102q-21 10 -50 10q-93 0 -93 -107v-58h222v245l123 18v-582q0 -75 60 -75q20 0 37 7l25 -93q-41 -17 -91 -17q-154 0 -154 180v218h-222v-387 h-123v387h-222v-387h-123v387h-86v99h86v64z" glyph-name="f_f_l.liga" horiz-adv-x="1087" unicode="ffl"/><glyph d="M394 740v-960h-305v960h305zM320 85h-160v-108h160v108zM288 54v-46h-96v46h96zM320 251h-96v-53h32v22h32v-45h-96v76h-32v-108h160v108zM320 368h-32v-63h-128v-33h160v96zM320 426h-160v-32h64v-35h-64v-32h96v67h64v32zM224 519v-34h-32v34h32zM256 552h-96v-100h160 v33h-64v67zM320 676h-159v-32h63v-36h-64v-31h160v31h-64v36h64v32zM320 -45h-160v-32h68l-68 -45v-32h160v32h-98l67 45h31v32z" glyph-name=".notdef" horiz-adv-x="480"/><glyph glyph-name="glyph1" horiz-adv-x="0"/><glyph glyph-name="glyph2" horiz-adv-x="333"/><glyph glyph-name="space" horiz-adv-x="221" unicode=" "/><glyph glyph-name="space" horiz-adv-x="221" unicode=" "/><glyph d="M86 205l-12 476l123 18l-12 -494h-99zM134 -11q-35 0 -56.5 22t-21.5 56t21.5 56t56.5 22t56.5 -22t21.5 -56t-21.5 -56t-56.5 -22z" glyph-name="exclam" horiz-adv-x="268" unicode="!"/><glyph d="M73 411l-12 279h123l-13 -279h-98zM263 411l-12 279h123l-13 -279h-98z" glyph-name="quotedbl" horiz-adv-x="434" unicode="&quot;"/><glyph d="M322 0l34 184h-150l-34 -184h-100l34 184h-84l13 91h87l27 145h-94l14 91h96l33 179h100l-33 -179h150l33 179h100l-33 -179h83l-13 -91h-86l-27 -145h93l-14 -91h-95l-34 -184h-100zM222 275h150l27 145h-150z" glyph-name="numbersign" horiz-adv-x="620" unicode="#"/><glyph d="M283 -124v126q-136 10 -233 107l55 68q84 -76 178 -85v226l-18 4q-166 38 -166 177q0 79 51 126t133 60v116l83 10v-123q114 -6 196 -66l-49 -74q-70 45 -147 51v-199l13 -3q80 -20 128 -61t48 -123q0 -86 -52.5 -140t-136.5 -68v-129h-83zM214 506q0 -59 69 -84v170 q-69 -19 -69 -86zM366 101q74 27 74 102q0 65 -74 93v-195z" glyph-name="dollar" horiz-adv-x="620" unicode="$"/><glyph d="M190 283q-82 0 -125 60t-43 150t43 150t125 60t125 -60t43 -150t-43 -150t-125 -60zM190 364q71 0 71 129t-71 129q-70 0 -70 -129t70 -129zM300 -13l-99 14l401 690l100 -14zM719 -10q-83 0 -125.5 60t-42.5 150t42.5 150t125.5 60t125.5 -60t42.5 -150t-42.5 -150 t-125.5 -60zM719 71q71 0 71 129t-71 129q-70 0 -70 -129t70 -129z" glyph-name="percent" horiz-adv-x="909" unicode="%"/><glyph d="M264 -13q-101 0 -164.5 52.5t-63.5 142.5q0 69 39 114.5t104 66.5q-87 43 -87 149q0 93 68 142t176 49q75 0 158 -29l-35 -96q-57 22 -108 22q-59 0 -96 -27t-37 -78q0 -94 130 -94h94v72l123 12v-84h107l-6 -98h-101v-127q0 -47 24.5 -69t64.5 -22q24 0 52 11l21 -87 q-46 -22 -105 -22q-117 0 -159 82q-69 -82 -199 -82zM161 194q0 -47 35 -78t95 -31q69 0 110 41t41 116v61h-143q-58 0 -98 -28.5t-40 -80.5z" glyph-name="ampersand" horiz-adv-x="757" unicode="&amp;"/><glyph d="M73 411l-12 279h123l-13 -279h-98z" glyph-name="quotesingle" horiz-adv-x="244" unicode="'"/><glyph d="M190 -224q-72 108 -111 236.5t-39 245.5t39 245.5t111 236.5h131q-158 -238 -158 -482t158 -482h-131z" glyph-name="parenleft" horiz-adv-x="350" unicode="("/><glyph d="M160 740q72 -108 111 -236.5t39 -245.5t-39 -245.5t-111 -236.5h-131q158 238 158 482t-158 482h131z" glyph-name="parenright" horiz-adv-x="350" unicode=")"/><glyph d="M32 560l29 86l137 -45v139h90v-139l138 45l28 -86l-136 -44l90 -122l-73 -53l-92 126l-91 -126l-73 53l88 122z" glyph-name="asterisk" horiz-adv-x="486" unicode="*"/><glyph d="M257 98v204h-197v91h197v205h106v-205h197v-91h-197v-204h-106z" glyph-name="plus" horiz-adv-x="620" unicode="+"/><glyph d="M61 -100q66 41 73 100l-70 21q-8 24 -8 44q0 36 22 58t55 22q38 0 62 -29.5t24 -83.5q0 -59 -33.5 -108t-91.5 -79z" glyph-name="comma" horiz-adv-x="274" unicode=","/><glyph d="M66 210v100h335l-12 -100h-323z" glyph-name="hyphen" horiz-adv-x="467" unicode="-"/><glyph d="M134 -11q-35 0 -56.5 22t-21.5 56t21.5 56t56.5 22t56.5 -22t21.5 -56t-21.5 -56t-56.5 -22z" glyph-name="period" horiz-adv-x="268" unicode="."/><glyph d="M6 -224l218 964h123l-218 -964h-123z" glyph-name="slash" horiz-adv-x="394" unicode="/"/><glyph d="M310 -11q-92 0 -155.5 50.5t-91 128.5t-27.5 177t27.5 177t91 128.5t155.5 50.5t155.5 -50.5t91 -128.5t27.5 -177t-27.5 -177t-91 -128.5t-155.5 -50.5zM310 92q77 0 112.5 69.5t35.5 183.5t-35.5 183.5t-112.5 69.5t-112.5 -69.5t-35.5 -183.5t35.5 -183.5t112.5 -69.5 z" glyph-name="zero" horiz-adv-x="620" unicode="0"/><glyph d="M98 458l-47 92l250 140h98v-591h169l-12 -99h-460v99h180v459z" glyph-name="one" horiz-adv-x="620" unicode="1"/><glyph d="M76 0v99l199 155q80 63 116 112t36 102q0 63 -45.5 98t-118.5 35q-81 0 -158 -52l-52 85q107 69 231 69q122 0 195.5 -56t73.5 -161q0 -84 -41.5 -152.5t-130.5 -133.5l-140 -101h318l-9 -99h-474z" glyph-name="two" horiz-adv-x="620" unicode="2"/><glyph d="M275 89q71 0 114 29.5t43 84.5q0 100 -148 100h-102l12 100h94q59 0 93.5 28t34.5 74q0 49 -40.5 72.5t-101.5 23.5q-79 0 -151 -41l-50 88q98 55 212 55t185.5 -47.5t71.5 -137.5q0 -64 -36 -106t-90 -58q57 -11 99.5 -48.5t42.5 -113.5q0 -97 -72 -151t-201 -54 q-132 0 -232 66l54 87q78 -51 168 -51z" glyph-name="three" horiz-adv-x="620" unicode="3"/><glyph d="M45 148l-7 7l171 544l114 -18l-138 -434h169v152l117 18v-170h110l-12 -99h-98v-148h-117v148h-309z" glyph-name="four" horiz-adv-x="620" unicode="4"/><glyph d="M277 89q69 0 111 34.5t42 92.5q0 59 -48 88t-119 29q-84 0 -157 -34l-7 5l42 386h387l-11 -99h-290l-19 -167q41 11 93 11q117 0 186.5 -53t69.5 -158q0 -108 -72 -172.5t-202 -64.5q-129 0 -229 66l55 87q83 -51 168 -51z" glyph-name="five" horiz-adv-x="620" unicode="5"/><glyph d="M326 -13q-133 0 -204 89.5t-71 238.5q0 172 84.5 280t239.5 108q105 0 179 -47l-46 -86q-61 32 -132 32q-53 0 -92.5 -21.5t-62 -58.5t-33.5 -82t-11 -98q53 94 172 94q94 0 157.5 -60t63.5 -158q0 -101 -67.5 -166t-176.5 -65zM318 87q57 0 93 34.5t36 89.5t-35.5 90 t-91.5 35t-93 -35t-37 -90q0 -54 36.5 -89t91.5 -35z" glyph-name="six" horiz-adv-x="620" unicode="6"/><glyph d="M265 -9l-126 18l260 581h-344v100h507l7 -6z" glyph-name="seven" horiz-adv-x="620" unicode="7"/><glyph d="M310 -13q-112 0 -185.5 53.5t-73.5 147.5q0 62 35 105t97 64q-50 24 -78.5 66t-28.5 94q0 81 66.5 133.5t167.5 52.5t167.5 -52.5t66.5 -133.5q0 -52 -28.5 -94t-78.5 -66q62 -21 97 -64t35 -105q0 -94 -73.5 -147.5t-185.5 -53.5zM310 87q60 0 97 29t37 78t-37 78.5 t-97 29.5t-97 -29.5t-37 -78.5t37 -78t97 -29zM310 404q52 0 85 28.5t33 70.5q0 43 -33 71.5t-85 28.5t-85 -28.5t-33 -71.5q0 -42 33 -70.5t85 -28.5z" glyph-name="eight" horiz-adv-x="620" unicode="8"/><glyph d="M294 703q133 0 204 -89.5t71 -238.5q0 -172 -84.5 -280t-239.5 -108q-105 0 -179 47l46 86q61 -32 132 -32q53 0 92.5 21.5t62 58.5t33.5 82t11 98q-53 -94 -172 -94q-94 0 -157.5 60t-63.5 158q0 101 67.5 166t176.5 65zM302 603q-57 0 -93 -34.5t-36 -89.5t35.5 -90 t91.5 -35t93 35t37 90q0 54 -36.5 89t-91.5 35z" glyph-name="nine" horiz-adv-x="620" unicode="9"/><glyph d="M134 -11q-35 0 -56.5 22t-21.5 56t21.5 56t56.5 22t56.5 -22t21.5 -56t-21.5 -56t-56.5 -22zM134 344q-35 0 -56.5 22t-21.5 56t21.5 56t56.5 22t56.5 -22t21.5 -56t-21.5 -56t-56.5 -22z" glyph-name="colon" horiz-adv-x="268" unicode=":"/><glyph d="M61 -100q66 41 73 100l-70 21q-8 24 -8 44q0 36 22 58t55 22q38 0 62 -29.5t24 -83.5q0 -59 -33.5 -108t-91.5 -79zM133 343q-35 0 -56.5 22t-21.5 56t21.5 56t56.5 22t56.5 -22t21.5 -56t-21.5 -56t-56.5 -22z" glyph-name="semicolon" horiz-adv-x="274" unicode=";"/><glyph d="M560 98l-500 204v91l500 205v-97l-377 -153l377 -153v-97z" glyph-name="less" horiz-adv-x="620" unicode="&lt;"/><glyph d="M60 414v91h500v-91h-500zM60 191v91h500v-91h-500z" glyph-name="equal" horiz-adv-x="620" unicode="="/><glyph d="M60 98v97l377 153l-377 153v97l500 -205v-91z" glyph-name="greater" horiz-adv-x="620" unicode=">"/><glyph d="M177 400q138 12 138 105q0 45 -32 70.5t-84 25.5q-70 0 -127 -39l-43 87q89 54 190 54q95 0 157 -45.5t62 -139.5q0 -138 -162 -190v-123h-99v195zM227 -11q-35 0 -56.5 22t-21.5 56t21.5 56t56.5 22t56 -22t21 -56t-21 -56t-56 -22z" glyph-name="question" horiz-adv-x="474" unicode="?"/><glyph d="M538 -237q-218 0 -359 140.5t-141 354.5t141 354.5t359 140.5q141 0 256.5 -63t179 -168t63.5 -228q0 -120 -57 -203t-161 -83q-57 0 -101.5 27t-64.5 77q-57 -104 -177 -104q-97 0 -159 69t-62 181t62 181t159 69q123 0 180 -109l6 95h100v-294q0 -44 21 -69.5t59 -25.5 q53 0 83 50t30 131q0 164 -115 281t-302 117q-190 0 -304 -121.5t-114 -304.5t114 -304.5t304 -121.5q133 0 244 48l25 -63q-127 -54 -269 -54zM506 105q59 0 96 41.5t37 111.5t-37 111.5t-96 41.5t-95 -41.5t-36 -111.5t36 -111.5t95 -41.5z" glyph-name="at" horiz-adv-x="1074" unicode="@"/><glyph d="M171 -9l-129 18l291 681h98l287 -681l-123 -18l-67 160h-291zM278 249h210l-105 253z" glyph-name="A" horiz-adv-x="760" unicode="A"/><glyph d="M296 -13q-89 0 -217 17v1v680v1q111 17 197 17q133 0 204 -46.5t71 -137.5q0 -113 -105 -156q136 -34 136 -168q0 -99 -73 -153.5t-213 -54.5zM198 83q74 -4 112 -4q77 0 114 31.5t37 87.5q0 112 -142 112h-121v-227zM198 403h90q142 0 142 104t-142 104q-24 0 -90 -4 v-204z" glyph-name="B" horiz-adv-x="634" unicode="B"/><glyph d="M409 -13q-157 0 -256 99t-99 259t99 259t256 99q119 0 207 -55l-43 -93q-71 44 -155 44q-104 0 -169.5 -70t-65.5 -184t65.5 -184t169.5 -70q84 0 155 44l43 -93q-88 -55 -207 -55z" glyph-name="C" horiz-adv-x="667" unicode="C"/><glyph d="M281 -13q-110 0 -201 16v684q91 16 201 16q193 0 297 -98.5t104 -259.5t-104 -259.5t-297 -98.5zM208 92q45 -3 81 -3q130 0 197 70t67 186t-67 186t-197 70q-36 0 -81 -3v-506z" glyph-name="D" horiz-adv-x="736" unicode="D"/><glyph d="M80 0v690h441l-13 -104h-300v-184h264v-104h-264v-194h318l-13 -104h-433z" glyph-name="E" horiz-adv-x="573" unicode="E"/><glyph d="M80 0v690h433l-13 -105h-292v-197h256v-104h-256v-284h-128z" glyph-name="F" horiz-adv-x="554" unicode="F"/><glyph d="M402 -11q-156 0 -252 98t-96 258t101.5 259t265.5 99q125 0 220 -55l-44 -93q-77 46 -166 46q-111 0 -180.5 -70.5t-69.5 -185.5t62.5 -184t164.5 -69q68 0 122 28v146h-171l12 99h281v-307q-114 -69 -250 -69z" glyph-name="G" horiz-adv-x="713" unicode="G"/><glyph d="M509 0v298h-301v-298h-128v681l128 19v-298h301v279l129 19v-700h-129z" glyph-name="H" horiz-adv-x="717" unicode="H"/><glyph d="M80 0v681l123 18v-699h-123z" glyph-name="I" horiz-adv-x="282" unicode="I"/><glyph d="M212 -13q-99 0 -175 42l41 94q60 -30 116 -30q129 0 129 139v449l129 18v-467q0 -120 -63 -182.5t-177 -62.5z" glyph-name="J" horiz-adv-x="525" unicode="J"/><glyph d="M80 0v681l128 18v-327q135 9 193.5 89t65.5 220l123 18q0 -235 -144 -348l200 -342l-128 -18l-177 303q-59 -20 -133 -24v-270h-128z" glyph-name="K" horiz-adv-x="693" unicode="K"/><glyph d="M80 0v681l128 19v-596h300l-13 -104h-415z" glyph-name="L" horiz-adv-x="533" unicode="L"/><glyph d="M49 0l106 690h92l211 -529l210 529h92l105 -690h-115l-67 451l-179 -451h-93l-180 450l-66 -450h-116z" glyph-name="M" horiz-adv-x="916" unicode="M"/><glyph d="M79 0v690h100l340 -482v473l113 18v-699h-101l-339 482v-482h-113z" glyph-name="N" horiz-adv-x="712" unicode="N"/><glyph d="M390 -13q-148 0 -242 100.5t-94 257.5t94 257.5t242 100.5q147 0 241 -100.5t94 -257.5t-94 -257.5t-241 -100.5zM390 90q97 0 151.5 71.5t54.5 183.5t-54.5 183.5t-151.5 71.5t-152 -71.5t-55 -183.5t55 -183.5t152 -71.5z" glyph-name="O" horiz-adv-x="779" unicode="O"/><glyph d="M280 226q-34 0 -72 3v-229h-128v687q116 16 200 16q156 0 232 -65t76 -173t-76 -173.5t-232 -65.5zM208 329q39 -4 80 -4q83 0 127.5 37.5t44.5 102.5q0 64 -44.5 101.5t-127.5 37.5q-35 0 -80 -3v-272z" glyph-name="P" horiz-adv-x="628" unicode="P"/><glyph d="M603 -232q-78 0 -128.5 40t-91.5 114l-37 68q-131 15 -211.5 113t-80.5 242q0 157 94 257.5t242 100.5q147 0 241 -100.5t94 -257.5q0 -131 -66.5 -224.5t-178.5 -122.5l12 -22q58 -106 136 -106q22 0 40 6l9 -97q-35 -11 -74 -11zM390 89q97 0 153 72.5t56 183.5 t-56 183.5t-153 72.5t-153 -72.5t-56 -183.5t56 -183.5t153 -72.5z" glyph-name="Q" horiz-adv-x="779" unicode="Q"/><glyph d="M280 246q-36 0 -77 3v-249h-123v687q116 16 200 16q157 0 232.5 -61t75.5 -167q0 -154 -148 -206l45 -74q33 -54 64 -80t72 -26q22 0 40 6l10 -97q-37 -11 -75 -11q-78 0 -129 40t-91 114l-59 106zM203 349q43 -4 85 -4q172 0 172 130q0 129 -172 129q-42 0 -85 -4v-251z " glyph-name="R" horiz-adv-x="712" unicode="R"/><glyph d="M314 -13q-159 0 -272 111l59 74q97 -89 206 -89q65 0 101.5 28.5t36.5 80.5q0 46 -28 68.5t-80 35.5l-72 18q-172 43 -172 192q0 98 69 147.5t179 49.5q137 0 234 -69l-53 -81q-80 54 -176 54q-129 0 -129 -92q0 -39 24.5 -59.5t78.5 -33.5l72 -18q177 -43 177 -197 q0 -107 -73 -163.5t-182 -56.5z" glyph-name="S" horiz-adv-x="626" unicode="S"/><glyph d="M267 0v586h-222v104h578l-13 -104h-215v-586h-128z" glyph-name="T" horiz-adv-x="659" unicode="T"/><glyph d="M350 -13q-127 0 -203 70.5t-76 196.5v427l129 19v-438q0 -76 39.5 -122t110.5 -46t111 46t40 122v419l128 19v-446q0 -126 -75.5 -196.5t-203.5 -70.5z" glyph-name="U" horiz-adv-x="701" unicode="U"/><glyph d="M341 0l-299 681l131 18l218 -513l221 513l123 -18l-294 -681h-100z" glyph-name="V" horiz-adv-x="777" unicode="V"/><glyph d="M254 0l-211 682l116 18l153 -495l158 485h104l159 -486l153 496l115 -18l-209 -682h-104l-165 503l-166 -503h-103z" glyph-name="W" horiz-adv-x="1044" unicode="W"/><glyph d="M581 0l-190 251l-183 -251h-156l262 351l-250 330l150 18l199 -263l193 263l145 -18l-262 -345l255 -336h-163z" glyph-name="X" horiz-adv-x="805" unicode="X"/><glyph d="M297 0v281l-264 400l133 18l195 -303l195 303l133 -18l-263 -400v-281h-129z" glyph-name="Y" horiz-adv-x="723" unicode="Y"/><glyph d="M51 0v99l368 487h-359v104h508v-99l-368 -487h386l-12 -104h-523z" glyph-name="Z" horiz-adv-x="634" unicode="Z"/><glyph d="M67 -224v964h250l-12 -99h-115v-766h127l-12 -99h-238z" glyph-name="bracketleft" horiz-adv-x="349" unicode="["/><glyph d="M265 -224l-218 964h123l218 -964h-123z" glyph-name="backslash" horiz-adv-x="394" unicode="\"/><glyph d="M282 740v-964h-250l12 99h115v766h-127l12 99h238z" glyph-name="bracketright" horiz-adv-x="349" unicode="]"/><glyph d="M34 414l150 276h99l150 -276l-101 -12l-98 186l-99 -186z" glyph-name="asciicircum" horiz-adv-x="467" unicode="^"/><glyph d="M65 -29v100h419l-15 -100h-404z" glyph-name="underscore" horiz-adv-x="550" unicode="_"/><glyph d="M333 551l-233 116l49 90l225 -129z" glyph-name="grave" horiz-adv-x="474" unicode="`"/><glyph d="M480 -13q-95 0 -121 71q-56 -71 -156 -71q-71 0 -117 38t-46 107q0 75 58 115t160 40q44 0 100 -9l1 17q1 51 -32 77t-87 26q-70 0 -129 -43l-52 85q75 59 190 59q105 0 166 -48t59 -142l-3 -162q-1 -52 43 -52q14 0 26 3v-103q-32 -8 -60 -8zM165 142q0 -30 23 -46 t55 -16q46 0 76.5 33.5t33.5 90.5q-39 9 -76 9q-51 0 -81.5 -18t-30.5 -53z" glyph-name="a" horiz-adv-x="575" unicode="a"/><glyph d="M350 -13q-120 0 -177 107l-6 -94h-100v731l123 18v-330q59 81 160 81q97 0 159 -71t62 -186q0 -114 -62 -185t-159 -71zM320 87q57 0 92.5 42t35.5 114t-35.5 114t-92.5 42q-58 0 -94 -42t-36 -114t36 -114t94 -42z" glyph-name="b" horiz-adv-x="616" unicode="b"/><glyph d="M307 -13q-118 0 -190.5 70t-72.5 186t73 186.5t190 70.5q85 0 153 -39l-42 -91q-49 27 -96 27q-69 0 -110 -43.5t-41 -110.5t41 -110.5t110 -43.5q47 0 96 27l42 -91q-66 -38 -153 -38z" glyph-name="c" horiz-adv-x="498" unicode="c"/><glyph d="M267 -13q-97 0 -159.5 71t-62.5 185t62.5 185.5t159.5 71.5q103 0 160 -83v314l123 18v-749h-100l-7 95q-58 -108 -176 -108zM297 87q57 0 93.5 42t36.5 114t-36.5 114t-93.5 42q-58 0 -93.5 -42t-35.5 -114t35.5 -114t93.5 -42z" glyph-name="d" horiz-adv-x="616" unicode="d"/><glyph d="M306 -13q-121 0 -191.5 71t-70.5 185q0 117 66 186.5t174 69.5q102 0 163 -60.5t61 -163.5q0 -35 -8 -64h-332q9 -56 48 -91.5t104 -35.5q69 0 128 39l35 -86q-76 -50 -177 -50zM170 296h229q-4 47 -33 77.5t-79 30.5q-96 0 -117 -108z" glyph-name="e" horiz-adv-x="553" unicode="e"/><glyph d="M121 550q0 99 49 151t141 52q57 0 102 -21l-30 -93q-24 12 -51 12q-88 0 -88 -107v-58h135l-12 -99h-123v-387h-123v387h-86v99h86v64z" glyph-name="f" horiz-adv-x="411" unicode="f"/><glyph d="M276 -237q-103 0 -209 49l41 93q83 -40 159 -40q79 0 120 42t41 121v52q-58 -82 -163 -82q-97 0 -159 69t-62 181t62 181t159 69q124 0 181 -112l5 100h100v-464q0 -122 -73.5 -190.5t-201.5 -68.5zM295 95q59 0 96 41.5t37 111.5q0 71 -37 112.5t-96 41.5t-95 -41.5 t-36 -112.5q0 -70 36 -111.5t95 -41.5z" glyph-name="g" horiz-adv-x="618" unicode="g"/><glyph d="M67 0v731l123 18v-320q52 71 148 71q82 0 132 -51.5t50 -148.5v-300h-123v275q0 122 -94 122q-52 0 -82.5 -39.5t-30.5 -110.5v-247h-123z" glyph-name="h" horiz-adv-x="579" unicode="h"/><glyph d="M66 0v477l123 18v-495h-123zM128 576q-34 0 -55.5 22t-21.5 55t21.5 55t55.5 22t55.5 -22t21.5 -55t-21.5 -55t-55.5 -22z" glyph-name="i" horiz-adv-x="256" unicode="i"/><glyph d="M15 -206q51 99 51 217v466l123 18v-479q0 -150 -68 -268zM127 576q-34 0 -55.5 22t-21.5 55t21.5 55t55.5 22t55.5 -22t21.5 -55t-21.5 -55t-55.5 -22z" glyph-name="j" horiz-adv-x="255" unicode="j"/><glyph d="M67 0v731l123 18v-452q179 13 182 181l123 18q2 -76 -27 -139t-88 -104l160 -244l-133 -18l-137 212q-38 -9 -80 -12v-191h-123z" glyph-name="k" horiz-adv-x="574" unicode="k"/><glyph d="M217 -11q-154 0 -154 180v562l123 18v-582q0 -75 60 -75q20 0 37 7l25 -93q-41 -17 -91 -17z" glyph-name="l" horiz-adv-x="339" unicode="l"/><glyph d="M727 275q0 122 -94 122q-52 0 -82.5 -39.5t-30.5 -110.5v-247h-123v275q0 122 -94 122q-52 0 -82.5 -39.5t-30.5 -110.5v-247h-123v480l99 12v-106q48 114 172 114q120 0 164 -101q50 101 166 101q82 0 132 -51.5t50 -148.5v-300h-123v275z" glyph-name="m" horiz-adv-x="909" unicode="m"/><glyph d="M397 275q0 122 -94 122q-52 0 -82.5 -39.5t-30.5 -110.5v-247h-123v478l109 16v-87q52 93 162 93q82 0 132 -51.5t50 -148.5v-300h-123v275z" glyph-name="n" horiz-adv-x="579" unicode="n"/><glyph d="M294 -13q-111 0 -180.5 70.5t-69.5 185.5t69.5 186t180.5 71q112 0 181 -71t69 -186t-69 -185.5t-181 -70.5zM294 89q57 0 92 41.5t35 112.5t-35 112.5t-92 41.5q-56 0 -91.5 -41.5t-35.5 -112.5t35.5 -112.5t91.5 -41.5z" glyph-name="o" horiz-adv-x="589" unicode="o"/><glyph d="M350 -13q-103 0 -160 82v-284l-123 -18v711l109 16v-99q58 105 174 105q97 0 159.5 -71.5t62.5 -185.5t-62.5 -185t-159.5 -71zM320 87q58 0 93.5 42t35.5 114t-35.5 114t-93.5 42q-57 0 -93.5 -42t-36.5 -114t36.5 -114t93.5 -42z" glyph-name="p" horiz-adv-x="617" unicode="p"/><glyph d="M267 -13q-97 0 -159.5 71t-62.5 185t62.5 185.5t159.5 71.5q118 0 176 -109l7 95h100v-701l-123 -18v302q-57 -82 -160 -82zM297 87q57 0 93.5 42t36.5 114t-36.5 114t-93.5 42q-58 0 -93.5 -42t-35.5 -114t35.5 -114t93.5 -42z" glyph-name="q" horiz-adv-x="616" unicode="q"/><glyph d="M67 0v480l109 12v-106q38 114 147 114q27 0 58 -9v-119q-33 10 -59 10q-63 0 -97.5 -43.5t-34.5 -116.5v-222h-123z" glyph-name="r" horiz-adv-x="419" unicode="r"/><glyph d="M247 -13q-122 0 -215 79l56 77q72 -58 158 -58q39 0 60.5 15t21.5 42q0 24 -17.5 37t-52.5 20l-41 9q-72 16 -108 48.5t-36 91.5q0 75 54.5 113t140.5 38q108 0 187 -50l-51 -80q-61 35 -134 35q-77 0 -77 -47q0 -40 66 -54l51 -11q63 -13 100.5 -44.5t37.5 -97.5 q0 -79 -56.5 -121t-144.5 -42z" glyph-name="s" horiz-adv-x="498" unicode="s"/><glyph d="M288 -13q-78 0 -125 41.5t-47 132.5v226h-81v99h81v111l123 23v-134h132l-12 -99h-120v-196q0 -102 79 -102q25 0 55 12l26 -92q-51 -22 -111 -22z" glyph-name="t" horiz-adv-x="431" unicode="t"/><glyph d="M246 -13q-83 0 -135 49t-52 145v299l123 12v-286q0 -57 25.5 -87t73.5 -30q108 0 108 145v246l123 12v-492h-99l-7 79q-48 -92 -160 -92z" glyph-name="u" horiz-adv-x="579" unicode="u"/><glyph d="M253 0l-223 478l125 19l150 -336l149 336l126 -19l-224 -478h-103z" glyph-name="v" horiz-adv-x="610" unicode="v"/><glyph d="M186 0l-154 478l113 17l104 -331l94 322h129l94 -322l104 331l114 -17l-155 -478h-111l-110 346l-110 -346h-112z" glyph-name="w" horiz-adv-x="816" unicode="w"/><glyph d="M414 0l-123 159l-121 -159h-121l181 237l-184 239l134 18l135 -176l133 176l113 -16l-187 -236l186 -242h-146z" glyph-name="x" horiz-adv-x="607" unicode="x"/><glyph d="M255 -238q-111 0 -190 62l41 86q70 -49 140 -49q73 0 108 32t35 103v55q-49 -64 -143 -64q-83 0 -135 49t-52 145v299l123 12v-286q0 -57 25.5 -87t73.5 -30q108 0 108 145v246l123 12v-496q0 -105 -71.5 -169.5t-185.5 -64.5z" glyph-name="y" horiz-adv-x="579" unicode="y"/><glyph d="M40 0v99l250 288h-239v99h377v-99l-249 -288h266l-12 -99h-393z" glyph-name="z" horiz-adv-x="482" unicode="z"/><glyph d="M280 -224q-99 0 -144 52.5t-29 151.5l16 78q12 64 -9.5 99t-83.5 51v100q62 16 83.5 51t9.5 99l-16 78q-16 99 29 151.5t144 52.5h75l-12 -99h-31q-104 0 -84 -102l18 -117q12 -63 -17.5 -105t-87.5 -58v-2q58 -16 87.5 -58t17.5 -105l-18 -117q-20 -102 84 -102h43 l-12 -99h-63z" glyph-name="braceleft" horiz-adv-x="387" unicode="{"/><glyph d="M67 -224v964h123v-964h-123z" glyph-name="bar" horiz-adv-x="256" unicode="|"/><glyph d="M107 740q99 0 144 -52.5t29 -151.5l-16 -78q-12 -64 9.5 -99t83.5 -51v-100q-62 -16 -83.5 -51t-9.5 -99l16 -78q16 -99 -29 -151.5t-144 -52.5h-75l12 99h31q104 0 84 102l-18 117q-12 63 17.5 105t87.5 58v2q-58 16 -87.5 58t-17.5 105l18 117q20 102 -84 102h-43 l12 99h63z" glyph-name="braceright" horiz-adv-x="387" unicode="}"/><glyph d="M421 262q-40 0 -78 22t-70 44.5t-58 22.5q-28 0 -44.5 -21.5t-18.5 -58.5h-92q0 90 36.5 139.5t101.5 49.5q39 0 76.5 -22.5t70 -45t59.5 -22.5q29 0 45.5 22t18.5 58h92q0 -90 -36.5 -139t-102.5 -49z" glyph-name="asciitilde" horiz-adv-x="620" unicode="~"/><glyph d="M182 281l12 -476l-123 -18l12 494h99zM134 497q35 0 56.5 -22t21.5 -56t-21.5 -56t-56.5 -22t-56.5 22t-21.5 56t21.5 56t56.5 22z" glyph-name="exclamdown" horiz-adv-x="268" unicode="¡"/><glyph d="M289 0v98q-85 22 -134.5 87.5t-49.5 159.5q0 95 49.5 160.5t134.5 86.5v89l122 18v-100q57 -7 109 -36l-42 -91q-49 27 -96 27q-70 0 -110.5 -43.5t-40.5 -110.5t40.5 -110.5t110.5 -43.5q47 0 96 27l42 -91q-50 -28 -109 -35v-92h-122z" glyph-name="cent" horiz-adv-x="620" unicode="¢"/><glyph d="M66 99q108 73 108 186v12h-108v92h84q-28 73 -28 111q0 92 69.5 147.5t180.5 55.5q104 0 180 -45l-40 -90q-58 33 -128 33q-64 0 -101.5 -31t-37.5 -87q0 -34 26 -94h201l-12 -92h-163v-13q0 -61 -30 -108.5t-67 -76.5h360l-14 -99h-480v99z" glyph-name="sterling" horiz-adv-x="620" unicode="£"/><glyph d="M310 157q-59 0 -104 28l-79 -79l-56 56l79 79q-28 45 -28 104q0 60 28 105l-79 78l56 56l79 -79q45 28 104 28t105 -27l78 78l56 -56l-78 -78q27 -46 27 -105t-28 -104l79 -79l-56 -56l-79 79q-45 -28 -104 -28zM310 228q51 0 82.5 33t31.5 84t-31.5 84t-82.5 33 q-50 0 -82 -33t-32 -84t32 -84t82 -33z" glyph-name="currency" horiz-adv-x="620" unicode="¤"/><glyph d="M250 0v116h-189v93h189v64h-189v92h141l-186 316l124 18l171 -304l171 304l124 -18l-186 -316h147l-12 -92h-182v-64h194l-12 -93h-182v-116h-123z" glyph-name="yen" horiz-adv-x="620" unicode="¥"/><glyph d="M67 -224v429h123v-429h-123zM67 311v429h123v-429h-123z" glyph-name="brokenbar" horiz-adv-x="256" unicode="¦"/><glyph d="M304 -237q-161 0 -276 106l54 65q103 -85 216 -85q71 0 112.5 30.5t41.5 79.5q0 44 -33 66.5t-90 35.5l-72 16q-177 39 -177 174q0 87 74 133q-74 48 -74 134q0 91 72.5 138t182.5 47q135 0 232 -66l-48 -72q-84 52 -183 52q-66 0 -105 -23.5t-39 -68.5q0 -38 28 -59 t87 -34l68 -15q86 -19 136.5 -59t50.5 -121q0 -86 -65 -135q65 -47 65 -132q0 -98 -73 -152.5t-185 -54.5zM192 258q0 -39 28 -59.5t87 -34.5l68 -15l24 -6q53 31 53 84q0 44 -32.5 66t-90.5 36l-65 14q-72 -22 -72 -85z" glyph-name="section" horiz-adv-x="609" unicode="§"/><glyph d="M165 582q-29 0 -47 19t-18 46q0 28 18 47t47 19t47.5 -19t18.5 -47q0 -27 -18.5 -46t-47.5 -19zM364 582q-29 0 -47.5 19t-18.5 46q0 28 18.5 47t47.5 19t47 -19t18 -47q0 -27 -18 -46t-47 -19z" glyph-name="dieresis" horiz-adv-x="529" unicode="¨"/><glyph d="M411 -13q-154 0 -255.5 104.5t-101.5 253.5t101.5 253.5t255.5 104.5t255.5 -104.5t101.5 -253.5t-101.5 -253.5t-255.5 -104.5zM411 18q139 0 230.5 96t91.5 231t-91.5 231t-230.5 96t-230 -96t-91 -231t91 -231t230 -96zM424 137q-94 0 -154.5 57t-60.5 151t60.5 151 t154.5 57q67 0 122 -30l-33 -73q-39 23 -82 23q-52 0 -86.5 -34.5t-34.5 -93.5t34 -93t87 -34q44 0 82 22l33 -73q-55 -30 -122 -30z" glyph-name="copyright" horiz-adv-x="822" unicode="©"/><glyph d="M284 463q-59 0 -75 39q-33 -39 -93 -39q-42 0 -69 21.5t-27 60.5q0 86 131 86q32 0 58 -5v7q1 24 -17.5 37.5t-49.5 13.5q-38 0 -73 -23l-32 61q43 31 111 31q66 0 106 -28.5t34 -89.5l-2 -75q-2 -22 20 -22q6 0 16 2v-71q-22 -6 -38 -6zM108 552q0 -14 11.5 -22t27.5 -8 q24 0 40 16t17 44q-19 4 -38 4q-58 0 -58 -34z" glyph-name="ordfeminine" horiz-adv-x="335" unicode="ª"/><glyph d="M210 69l-163 191l163 191l73 -62l-110 -129l110 -129zM418 69l-163 191l163 191l73 -62l-110 -129l110 -129z" glyph-name="guillemotleft" horiz-adv-x="542" unicode="«"/><glyph d="M453 191v223h-393v91h500v-314h-107z" glyph-name="logicalnot" horiz-adv-x="620" unicode="¬"/><glyph d="M333 251q-122 0 -206.5 83t-84.5 209t84.5 208.5t206.5 82.5t206.5 -82.5t84.5 -208.5t-84.5 -209t-206.5 -83zM333 283q107 0 181 74t74 186t-74 185.5t-181 73.5t-181.5 -73.5t-74.5 -185.5t74.5 -186t181.5 -74zM312 470h-20v-88h-91v322q58 8 111 8q85 0 124.5 -34 t39.5 -87q0 -70 -62 -101l11 -15q23 -30 55 -30q9 0 15 2l5 -71q-23 -5 -42 -5q-73 0 -113 67l-19 32h-14zM292 545l26 -1q38 0 55 11.5t17 35.5q0 46 -72 46l-26 -1v-91z" glyph-name="registered" horiz-adv-x="666" unicode="®"/><glyph d="M100 593v93h295l-13 -93h-282z" glyph-name="macron" horiz-adv-x="495" unicode="¯"/><glyph d="M204 398q-68 0 -112.5 43.5t-44.5 109.5t44.5 109t112.5 43q67 0 111.5 -43t44.5 -109t-44.5 -109.5t-111.5 -43.5zM204 472q34 0 55.5 21.5t21.5 57.5q0 35 -21.5 56.5t-55.5 21.5t-56 -21.5t-22 -56.5q0 -36 22 -57.5t56 -21.5z" glyph-name="degree" horiz-adv-x="407" unicode="°"/><glyph d="M60 370v91h197v137h106v-137h197v-91h-197v-138h-106v138h-197zM60 98v91h500v-91h-500z" glyph-name="plusminus" horiz-adv-x="620" unicode="±"/><glyph d="M45 418v82l117 78q81 56 81 103q0 32 -24.5 50t-62.5 18q-45 0 -90 -30l-42 66q71 45 148 45q75 0 122 -35t47 -99q0 -48 -27 -85.5t-80 -74.5l-52 -36h160l-7 -82h-290z" glyph-name="uni00B2" horiz-adv-x="380" unicode="²"/><glyph d="M173 409q-81 0 -150 41l45 71q48 -29 97 -29q77 0 77 48q0 42 -72 42h-66l9 79h60q30 0 45.5 11.5t15.5 29.5q0 42 -71 42q-48 0 -88 -24l-40 72q65 36 137 36q73 0 119 -30t46 -84q0 -35 -19.5 -59t-51.5 -33q78 -17 78 -92q0 -57 -45 -89t-126 -32z" glyph-name="uni00B3" horiz-adv-x="380" unicode="³"/><glyph d="M141 551l-41 77l225 129l49 -90z" glyph-name="acute" horiz-adv-x="474" unicode="´"/><glyph d="M281 229q-116 0 -181 63.5t-65 166.5t65 167t181 64h145v-796l-100 -14v349h-45zM517 -94v784h100v-770z" glyph-name="paragraph" horiz-adv-x="683" unicode="¶"/><glyph d="M134 267q-35 0 -56.5 22t-21.5 56t21.5 56t56.5 22t56.5 -22t21.5 -56t-21.5 -56t-56.5 -22z" glyph-name="periodcentered" horiz-adv-x="268" unicode="·"/><glyph d="M184 -233q-42 0 -84 16l16 58q32 -10 58 -10q25 0 43 9.5t18 29.5q0 41 -91 38l33 112l51 -10l-16 -58q44 -3 72.5 -23.5t28.5 -61.5q0 -44 -34.5 -72t-94.5 -28z" glyph-name="cedilla" horiz-adv-x="413" unicode="¸"/><glyph d="M67 669l-37 72l151 77h79v-318h91l-9 -82h-279v82h99v217z" glyph-name="uni00B9" horiz-adv-x="380" unicode="¹"/><glyph d="M173 463q-67 0 -109 40t-42 105t41.5 105t109.5 40q67 0 108.5 -40t41.5 -105t-41.5 -105t-108.5 -40zM173 538q26 0 43 18.5t17 51.5t-17 52t-43 19q-27 0 -44.5 -19t-17.5 -52t17 -51.5t45 -18.5z" glyph-name="ordmasculine" horiz-adv-x="345" unicode="º"/><glyph d="M332 69l-73 62l110 129l-110 129l73 62l163 -191zM124 69l-73 62l110 129l-110 129l73 62l163 -191z" glyph-name="guillemotright" horiz-adv-x="542" unicode="»"/><glyph d="M193 290v299l-95 -48l-37 72l150 77h80v-400h-98zM296 -13l-99 14l401 690l100 -14zM536 77l-5 5l97 325l97 -13l-70 -235h63v78l97 15v-93h52l-9 -82h-43v-77h-97v77h-182z" glyph-name="onequarter" horiz-adv-x="889" unicode="¼"/><glyph d="M193 290v299l-95 -48l-37 72l150 77h80v-400h-98zM296 -13l-99 14l401 690l100 -14zM592 0v82l117 78q81 56 81 103q0 32 -24.5 50t-62.5 18q-45 0 -90 -30l-42 66q71 45 148 45q75 0 122 -35t47 -99q0 -48 -27 -85.5t-80 -74.5l-52 -36h160l-7 -82h-290z" glyph-name="onehalf" horiz-adv-x="927" unicode="½"/><glyph d="M173 281q-81 0 -150 41l45 71q48 -29 97 -29q77 0 77 48q0 42 -72 42h-66l9 79h60q30 0 45.5 11.5t15.5 29.5q0 42 -71 42q-48 0 -88 -24l-40 72q65 36 137 36q73 0 119 -30t46 -84q0 -35 -19.5 -59t-51.5 -33q78 -17 78 -92q0 -57 -45 -89t-126 -32zM304 -13l-99 14 l401 690l100 -14zM544 77l-5 5l97 325l97 -13l-70 -235h63v78l97 15v-93h52l-9 -82h-43v-77h-97v77h-182z" glyph-name="threequarters" horiz-adv-x="897" unicode="¾"/><glyph d="M297 86q-138 -12 -138 -105q0 -45 32 -70.5t84 -25.5q70 0 127 39l43 -87q-89 -54 -190 -54q-95 0 -157 45.5t-62 139.5q0 138 162 190v123h99v-195zM247 497q35 0 56.5 -22t21.5 -56t-21.5 -56t-56.5 -22t-56 22t-21 56t21 56t56 22z" glyph-name="questiondown" horiz-adv-x="474" unicode="¿"/><glyph d="M171 -9l-129 18l291 681h98l287 -681l-123 -18l-67 160h-291zM446 755l-233 116l49 90l225 -129zM278 249h210l-105 253z" glyph-name="Agrave" horiz-adv-x="760" unicode="À"/><glyph d="M171 -9l-129 18l291 681h98l287 -681l-123 -18l-67 160h-291zM274 755l-41 77l225 129l49 -90zM278 249h210l-105 253z" glyph-name="Aacute" horiz-adv-x="760" unicode="Á"/><glyph d="M171 -9l-129 18l291 681h98l287 -681l-123 -18l-67 160h-291zM266 760l-53 60l166 146l165 -146l-53 -60l-112 84zM278 249h210l-105 253z" glyph-name="Acircumflex" horiz-adv-x="760" unicode="Â"/><glyph d="M171 -9l-129 18l291 681h98l287 -681l-123 -18l-67 160h-291zM445 790q-33 0 -69.5 26t-52.5 26q-34 0 -42 -48l-77 7q14 133 107 133q34 0 70 -26.5t53 -26.5q34 0 42 49l76 -8q-13 -132 -107 -132zM278 249h210l-105 253z" glyph-name="Atilde" horiz-adv-x="760" unicode="Ã"/><glyph d="M171 -9l-129 18l291 681h98l287 -681l-123 -18l-67 160h-291zM279 786q-29 0 -47 19t-18 46q0 28 18 47t47 19t47.5 -19t18.5 -47q0 -27 -18.5 -46t-47.5 -19zM478 786q-29 0 -47.5 19t-18.5 46q0 28 18.5 47t47.5 19t47 -19t18 -47q0 -27 -18 -46t-47 -19zM278 249h210 l-105 253z" glyph-name="Adieresis" horiz-adv-x="760" unicode="Ä"/><glyph d="M171 -9l-129 18l291 681h98l287 -681l-123 -18l-67 160h-291zM379 750q-48 0 -80.5 30.5t-32.5 76.5t32.5 76.5t80.5 30.5t80 -30.5t32 -76.5t-32 -76.5t-80 -30.5zM379 808q21 0 34.5 13.5t13.5 35.5t-13.5 35.5t-34.5 13.5t-35 -13.5t-14 -35.5t14 -35.5t35 -13.5z M278 249h210l-105 253z" glyph-name="Aring" horiz-adv-x="760" unicode="Å"/><glyph d="M156 -9l-118 18l353 681h564l-13 -104h-271v-184h235v-104h-235v-194h288l-12 -104h-405v182h-286zM307 281h235v310h-73z" glyph-name="AE" horiz-adv-x="1006" unicode="Æ"/><glyph d="M376 -233q-42 0 -84 16l16 58q32 -10 58 -10q25 0 43 9.5t18 29.5q0 41 -91 38l24 82q-138 15 -222 111.5t-84 243.5q0 160 99 259t256 99q119 0 207 -55l-43 -93q-71 44 -155 44q-104 0 -169.5 -70t-65.5 -184t65.5 -184t169.5 -70q84 0 155 44l43 -93q-87 -54 -202 -55 l-10 -35q44 -3 72.5 -23.5t28.5 -61.5q0 -44 -34.5 -72t-94.5 -28z" glyph-name="Ccedilla" horiz-adv-x="667" unicode="Ç"/><glyph d="M80 0v690h441l-13 -104h-300v-184h264v-104h-264v-194h318l-13 -104h-433zM375 755l-233 116l49 90l225 -129z" glyph-name="Egrave" horiz-adv-x="573" unicode="È"/><glyph d="M80 0v690h441l-13 -104h-300v-184h264v-104h-264v-194h318l-13 -104h-433zM202 755l-41 77l225 129l49 -90z" glyph-name="Eacute" horiz-adv-x="573" unicode="É"/><glyph d="M80 0v690h441l-13 -104h-300v-184h264v-104h-264v-194h318l-13 -104h-433zM194 760l-53 60l166 146l165 -146l-53 -60l-112 84z" glyph-name="Ecircumflex" horiz-adv-x="573" unicode="Ê"/><glyph d="M80 0v690h441l-13 -104h-300v-184h264v-104h-264v-194h318l-13 -104h-433zM207 786q-29 0 -47 19t-18 46q0 28 18 47t47 19t47.5 -19t18.5 -47q0 -27 -18.5 -46t-47.5 -19zM406 786q-29 0 -47.5 19t-18.5 46q0 28 18.5 47t47.5 19t47 -19t18 -47q0 -27 -18 -46t-47 -19z " glyph-name="Edieresis" horiz-adv-x="573" unicode="Ë"/><glyph d="M80 0v681l123 18v-699h-123zM224 763l-201 100l48 89l195 -111z" glyph-name="Igrave" horiz-adv-x="282" unicode="Ì"/><glyph d="M80 0v681l123 18v-699h-123zM47 763l-42 78l195 111l48 -89z" glyph-name="Iacute" horiz-adv-x="282" unicode="Í"/><glyph d="M80 0v681l123 18v-699h-123zM37 748l-54 60l153 146l153 -146l-54 -60l-99 81z" glyph-name="Icircumflex" horiz-adv-x="282" unicode="Î"/><glyph d="M80 0v681l123 18v-699h-123zM36 786q-29 0 -47 19t-18 46q0 28 18 47t47 19t47.5 -19t18.5 -47q0 -27 -18.5 -46t-47.5 -19zM235 786q-29 0 -47.5 19t-18.5 46q0 28 18.5 47t47.5 19t47 -19t18 -47q0 -27 -18 -46t-47 -19z" glyph-name="Idieresis" horiz-adv-x="282" unicode="Ï"/><glyph d="M281 -13q-110 0 -201 16v293h-79v99h79v292q91 16 201 16q193 0 297 -98.5t104 -259.5t-104 -259.5t-297 -98.5zM208 92q45 -3 81 -3q130 0 197 70t67 186t-67 186t-197 70q-36 0 -81 -3v-203h156l-12 -99h-144v-204z" glyph-name="Eth" horiz-adv-x="736" unicode="Ð"/><glyph d="M79 0v690h100l340 -482v473l113 18v-699h-101l-339 482v-482h-113zM436 790q-33 0 -69.5 26t-52.5 26q-34 0 -42 -48l-77 7q14 133 107 133q34 0 70 -26.5t53 -26.5q34 0 42 49l76 -8q-13 -132 -107 -132z" glyph-name="Ntilde" horiz-adv-x="712" unicode="Ñ"/><glyph d="M390 -13q-148 0 -242 100.5t-94 257.5t94 257.5t242 100.5q147 0 241 -100.5t94 -257.5t-94 -257.5t-241 -100.5zM390 90q97 0 151.5 71.5t54.5 183.5t-54.5 183.5t-151.5 71.5t-152 -71.5t-55 -183.5t55 -183.5t152 -71.5zM458 755l-233 116l49 90l225 -129z" glyph-name="Ograve" horiz-adv-x="779" unicode="Ò"/><glyph d="M390 -13q-148 0 -242 100.5t-94 257.5t94 257.5t242 100.5q147 0 241 -100.5t94 -257.5t-94 -257.5t-241 -100.5zM390 90q97 0 151.5 71.5t54.5 183.5t-54.5 183.5t-151.5 71.5t-152 -71.5t-55 -183.5t55 -183.5t152 -71.5zM285 755l-41 77l225 129l49 -90z" glyph-name="Oacute" horiz-adv-x="779" unicode="Ó"/><glyph d="M390 -13q-148 0 -242 100.5t-94 257.5t94 257.5t242 100.5q147 0 241 -100.5t94 -257.5t-94 -257.5t-241 -100.5zM390 90q97 0 151.5 71.5t54.5 183.5t-54.5 183.5t-151.5 71.5t-152 -71.5t-55 -183.5t55 -183.5t152 -71.5zM277 760l-53 60l166 146l165 -146l-53 -60 l-112 84z" glyph-name="Ocircumflex" horiz-adv-x="779" unicode="Ô"/><glyph d="M390 -13q-148 0 -242 100.5t-94 257.5t94 257.5t242 100.5q147 0 241 -100.5t94 -257.5t-94 -257.5t-241 -100.5zM390 90q97 0 151.5 71.5t54.5 183.5t-54.5 183.5t-151.5 71.5t-152 -71.5t-55 -183.5t55 -183.5t152 -71.5zM456 790q-33 0 -69.5 26t-52.5 26 q-34 0 -42 -48l-77 7q14 133 107 133q34 0 70 -26.5t53 -26.5q34 0 42 49l76 -8q-13 -132 -107 -132z" glyph-name="Otilde" horiz-adv-x="779" unicode="Õ"/><glyph d="M390 -13q-148 0 -242 100.5t-94 257.5t94 257.5t242 100.5q147 0 241 -100.5t94 -257.5t-94 -257.5t-241 -100.5zM390 90q97 0 151.5 71.5t54.5 183.5t-54.5 183.5t-151.5 71.5t-152 -71.5t-55 -183.5t55 -183.5t152 -71.5zM290 786q-29 0 -47 19t-18 46q0 28 18 47 t47 19t47.5 -19t18.5 -47q0 -27 -18.5 -46t-47.5 -19zM489 786q-29 0 -47.5 19t-18.5 46q0 28 18.5 47t47.5 19t47 -19t18 -47q0 -27 -18 -46t-47 -19z" glyph-name="Odieresis" horiz-adv-x="779" unicode="Ö"/><glyph d="M496 98l-186 185l-185 -185l-65 63l186 187l-186 185l65 65l185 -186l186 186l64 -65l-186 -186l186 -186z" glyph-name="multiply" horiz-adv-x="620" unicode="×"/><glyph d="M390 -13q-87 0 -161 38l-67 -96l-84 61l69 98q-93 101 -93 257q0 157 94 257.5t242 100.5q88 0 161 -39l67 96l84 -61l-69 -98q92 -102 92 -256q0 -157 -94 -257.5t-241 -100.5zM390 90q97 0 151.5 71.5t54.5 183.5q0 89 -35 153l-269 -383q44 -25 98 -25zM183 345 q0 -91 36 -154l269 384q-42 25 -98 25q-97 0 -152 -71.5t-55 -183.5z" glyph-name="Oslash" horiz-adv-x="779" unicode="Ø"/><glyph d="M350 -13q-127 0 -203 70.5t-76 196.5v427l129 19v-438q0 -76 39.5 -122t110.5 -46t111 46t40 122v419l128 19v-446q0 -126 -75.5 -196.5t-203.5 -70.5zM422 755l-233 116l49 90l225 -129z" glyph-name="Ugrave" horiz-adv-x="701" unicode="Ù"/><glyph d="M350 -13q-127 0 -203 70.5t-76 196.5v427l129 19v-438q0 -76 39.5 -122t110.5 -46t111 46t40 122v419l128 19v-446q0 -126 -75.5 -196.5t-203.5 -70.5zM250 755l-41 77l225 129l49 -90z" glyph-name="Uacute" horiz-adv-x="701" unicode="Ú"/><glyph d="M350 -13q-127 0 -203 70.5t-76 196.5v427l129 19v-438q0 -76 39.5 -122t110.5 -46t111 46t40 122v419l128 19v-446q0 -126 -75.5 -196.5t-203.5 -70.5zM242 760l-53 60l166 146l165 -146l-53 -60l-112 84z" glyph-name="Ucircumflex" horiz-adv-x="701" unicode="Û"/><glyph d="M350 -13q-127 0 -203 70.5t-76 196.5v427l129 19v-438q0 -76 39.5 -122t110.5 -46t111 46t40 122v419l128 19v-446q0 -126 -75.5 -196.5t-203.5 -70.5zM254 786q-29 0 -47 19t-18 46q0 28 18 47t47 19t47.5 -19t18.5 -47q0 -27 -18.5 -46t-47.5 -19zM453 786 q-29 0 -47.5 19t-18.5 46q0 28 18.5 47t47.5 19t47 -19t18 -47q0 -27 -18 -46t-47 -19z" glyph-name="Udieresis" horiz-adv-x="701" unicode="Ü"/><glyph d="M297 0v281l-264 400l133 18l195 -303l195 303l133 -18l-263 -400v-281h-129zM256 755l-41 77l225 129l49 -90z" glyph-name="Yacute" horiz-adv-x="723" unicode="Ý"/><glyph d="M280 121q-34 0 -72 3v-124h-128v681l128 18v-103q37 3 72 3q156 0 232 -65.5t76 -173.5t-76 -173.5t-232 -65.5zM208 224q58 -4 80 -4q83 0 127.5 37.5t44.5 102.5t-44.5 102.5t-127.5 37.5q-40 0 -80 -4v-272z" glyph-name="Thorn" horiz-adv-x="628" unicode="Þ"/><glyph d="M67 506q0 120 66.5 183.5t179.5 63.5q101 0 167.5 -50.5t66.5 -148.5q0 -117 -92 -167q72 -18 108.5 -67t36.5 -119q0 -91 -60.5 -152.5t-175.5 -61.5q-73 0 -133 25l27 96q45 -20 92 -20q60 0 92.5 33t32.5 83t-34.5 81t-98.5 31h-63v100h20q64 0 97 35t33 86 q0 50 -31.5 82.5t-84.5 32.5q-56 0 -89.5 -37t-33.5 -107v-508h-123v506z" glyph-name="germandbls" horiz-adv-x="642" unicode="ß"/><glyph d="M480 -13q-95 0 -121 71q-56 -71 -156 -71q-71 0 -117 38t-46 107q0 75 58 115t160 40q44 0 100 -9l1 17q1 51 -32 77t-87 26q-70 0 -129 -43l-52 85q75 59 190 59q105 0 166 -48t59 -142l-3 -162q-1 -52 43 -52q14 0 26 3v-103q-32 -8 -60 -8zM337 551l-233 116l49 90 l225 -129zM165 142q0 -30 23 -46t55 -16q46 0 76.5 33.5t33.5 90.5q-39 9 -76 9q-51 0 -81.5 -18t-30.5 -53z" glyph-name="agrave" horiz-adv-x="575" unicode="à"/><glyph d="M480 -13q-95 0 -121 71q-56 -71 -156 -71q-71 0 -117 38t-46 107q0 75 58 115t160 40q44 0 100 -9l1 17q1 51 -32 77t-87 26q-70 0 -129 -43l-52 85q75 59 190 59q105 0 166 -48t59 -142l-3 -162q-1 -52 43 -52q14 0 26 3v-103q-32 -8 -60 -8zM164 551l-41 77l225 129 l49 -90zM165 142q0 -30 23 -46t55 -16q46 0 76.5 33.5t33.5 90.5q-39 9 -76 9q-51 0 -81.5 -18t-30.5 -53z" glyph-name="aacute" horiz-adv-x="575" unicode="á"/><glyph d="M480 -13q-95 0 -121 71q-56 -71 -156 -71q-71 0 -117 38t-46 107q0 75 58 115t160 40q44 0 100 -9l1 17q1 51 -32 77t-87 26q-70 0 -129 -43l-52 85q75 59 190 59q105 0 166 -48t59 -142l-3 -162q-1 -52 43 -52q14 0 26 3v-103q-32 -8 -60 -8zM156 556l-53 60l166 146 l165 -146l-53 -60l-112 84zM165 142q0 -30 23 -46t55 -16q46 0 76.5 33.5t33.5 90.5q-39 9 -76 9q-51 0 -81.5 -18t-30.5 -53z" glyph-name="acircumflex" horiz-adv-x="575" unicode="â"/><glyph d="M480 -13q-95 0 -121 71q-56 -71 -156 -71q-71 0 -117 38t-46 107q0 75 58 115t160 40q44 0 100 -9l1 17q1 51 -32 77t-87 26q-70 0 -129 -43l-52 85q75 59 190 59q105 0 166 -48t59 -142l-3 -162q-1 -52 43 -52q14 0 26 3v-103q-32 -8 -60 -8zM335 586q-33 0 -69.5 26 t-52.5 26q-34 0 -42 -48l-77 7q14 133 107 133q34 0 70 -26.5t53 -26.5q34 0 42 49l76 -8q-13 -132 -107 -132zM165 142q0 -30 23 -46t55 -16q46 0 76.5 33.5t33.5 90.5q-39 9 -76 9q-51 0 -81.5 -18t-30.5 -53z" glyph-name="atilde" horiz-adv-x="575" unicode="ã"/><glyph d="M480 -13q-95 0 -121 71q-56 -71 -156 -71q-71 0 -117 38t-46 107q0 75 58 115t160 40q44 0 100 -9l1 17q1 51 -32 77t-87 26q-70 0 -129 -43l-52 85q75 59 190 59q105 0 166 -48t59 -142l-3 -162q-1 -52 43 -52q14 0 26 3v-103q-32 -8 -60 -8zM169 582q-29 0 -47 19 t-18 46q0 28 18 47t47 19t47.5 -19t18.5 -47q0 -27 -18.5 -46t-47.5 -19zM368 582q-29 0 -47.5 19t-18.5 46q0 28 18.5 47t47.5 19t47 -19t18 -47q0 -27 -18 -46t-47 -19zM165 142q0 -30 23 -46t55 -16q46 0 76.5 33.5t33.5 90.5q-39 9 -76 9q-51 0 -81.5 -18t-30.5 -53z " glyph-name="adieresis" horiz-adv-x="575" unicode="ä"/><glyph d="M480 -13q-95 0 -121 71q-56 -71 -156 -71q-71 0 -117 38t-46 107q0 75 58 115t160 40q44 0 100 -9l1 17q1 51 -32 77t-87 26q-70 0 -129 -43l-52 85q75 59 190 59q105 0 166 -48t59 -142l-3 -162q-1 -52 43 -52q14 0 26 3v-103q-32 -8 -60 -8zM269 546q-48 0 -80.5 30.5 t-32.5 76.5t32.5 76.5t80.5 30.5t80 -30.5t32 -76.5t-32 -76.5t-80 -30.5zM269 604q21 0 34.5 13.5t13.5 35.5t-13.5 35.5t-34.5 13.5t-35 -13.5t-14 -35.5t14 -35.5t35 -13.5zM165 142q0 -30 23 -46t55 -16q46 0 76.5 33.5t33.5 90.5q-39 9 -76 9q-51 0 -81.5 -18 t-30.5 -53z" glyph-name="aring" horiz-adv-x="575" unicode="å"/><glyph d="M623 -13q-149 0 -220 106q-31 -51 -85 -78.5t-115 -27.5q-71 0 -117 38t-46 107q0 75 58 115t160 40q44 0 100 -9l1 17q1 51 -32 77t-87 26q-70 0 -129 -43l-52 85q75 59 190 59q127 0 180 -68q65 68 172 68q102 0 162.5 -60.5t60.5 -163.5q0 -39 -7 -64h-333 q9 -56 48.5 -91.5t104.5 -35.5q69 0 128 39l35 -86q-76 -50 -177 -50zM165 142q0 -30 23 -46t55 -16q46 0 76.5 33.5t33.5 90.5q-39 9 -76 9q-51 0 -81.5 -18t-30.5 -53zM486 296h230q-4 47 -33 77.5t-79 30.5q-46 0 -77 -27.5t-41 -80.5z" glyph-name="ae" horiz-adv-x="870" unicode="æ"/><glyph d="M270 -233q-42 0 -84 16l16 58q32 -10 58 -10q25 0 43 9.5t18 29.5q0 41 -91 38l24 83q-96 15 -153 82.5t-57 169.5q0 116 73 186.5t190 70.5q85 0 153 -39l-42 -91q-49 27 -96 27q-69 0 -110 -43.5t-41 -110.5t41 -110.5t110 -43.5q47 0 96 27l42 -91q-66 -38 -152 -38 l-10 -35q44 -3 72.5 -23.5t28.5 -61.5q0 -44 -34.5 -72t-94.5 -28z" glyph-name="ccedilla" horiz-adv-x="498" unicode="ç"/><glyph d="M306 -13q-121 0 -191.5 71t-70.5 185q0 117 66 186.5t174 69.5q102 0 163 -60.5t61 -163.5q0 -35 -8 -64h-332q9 -56 48 -91.5t104 -35.5q69 0 128 39l35 -86q-76 -50 -177 -50zM353 551l-233 116l49 90l225 -129zM170 296h229q-4 47 -33 77.5t-79 30.5q-96 0 -117 -108z " glyph-name="egrave" horiz-adv-x="553" unicode="è"/><glyph d="M306 -13q-121 0 -191.5 71t-70.5 185q0 117 66 186.5t174 69.5q102 0 163 -60.5t61 -163.5q0 -35 -8 -64h-332q9 -56 48 -91.5t104 -35.5q69 0 128 39l35 -86q-76 -50 -177 -50zM181 551l-41 77l225 129l49 -90zM170 296h229q-4 47 -33 77.5t-79 30.5q-96 0 -117 -108z " glyph-name="eacute" horiz-adv-x="553" unicode="é"/><glyph d="M306 -13q-121 0 -191.5 71t-70.5 185q0 117 66 186.5t174 69.5q102 0 163 -60.5t61 -163.5q0 -35 -8 -64h-332q9 -56 48 -91.5t104 -35.5q69 0 128 39l35 -86q-76 -50 -177 -50zM173 556l-53 60l166 146l165 -146l-53 -60l-112 84zM170 296h229q-4 47 -33 77.5t-79 30.5 q-96 0 -117 -108z" glyph-name="ecircumflex" horiz-adv-x="553" unicode="ê"/><glyph d="M306 -13q-121 0 -191.5 71t-70.5 185q0 117 66 186.5t174 69.5q102 0 163 -60.5t61 -163.5q0 -35 -8 -64h-332q9 -56 48 -91.5t104 -35.5q69 0 128 39l35 -86q-76 -50 -177 -50zM186 582q-29 0 -47 19t-18 46q0 28 18 47t47 19t47.5 -19t18.5 -47q0 -27 -18.5 -46 t-47.5 -19zM385 582q-29 0 -47.5 19t-18.5 46q0 28 18.5 47t47.5 19t47 -19t18 -47q0 -27 -18 -46t-47 -19zM170 296h229q-4 47 -33 77.5t-79 30.5q-96 0 -117 -108z" glyph-name="edieresis" horiz-adv-x="553" unicode="ë"/><glyph d="M66 0v477l123 18v-495h-123zM216 559l-201 100l48 89l195 -111z" glyph-name="igrave" horiz-adv-x="256" unicode="ì"/><glyph d="M66 0v477l123 18v-495h-123zM39 559l-42 78l195 111l48 -89z" glyph-name="iacute" horiz-adv-x="256" unicode="í"/><glyph d="M66 0v477l123 18v-495h-123zM29 544l-54 60l153 146l153 -146l-54 -60l-99 81z" glyph-name="icircumflex" horiz-adv-x="256" unicode="î"/><glyph d="M66 0v477l123 18v-495h-123zM43 576q-29 0 -47 19t-18 47t18 46.5t47 18.5t47.5 -18.5t18.5 -46.5t-18.5 -47t-47.5 -19zM212 576q-29 0 -47 19t-18 47t18 46.5t47 18.5t47.5 -18.5t18.5 -46.5t-18.5 -47t-47.5 -19z" glyph-name="idieresis" horiz-adv-x="256" unicode="ï"/><glyph d="M282 -13q-103 0 -171 64t-68 170q0 102 62.5 166t158.5 64q103 0 158 -76q-22 87 -78 156l-128 -51l-30 77l92 37q-71 52 -150 68l14 89q145 -16 249 -112l123 49l30 -77l-94 -38q89 -122 89 -285q0 -140 -70.5 -220.5t-186.5 -80.5zM288 80q55 0 91.5 38.5t36.5 102.5 q0 63 -36.5 101t-91.5 38t-91.5 -38t-36.5 -101q0 -64 36.5 -102.5t91.5 -38.5z" glyph-name="eth" horiz-adv-x="585" unicode="ð"/><glyph d="M397 275q0 122 -94 122q-52 0 -82.5 -39.5t-30.5 -110.5v-247h-123v478l109 16v-87q52 93 162 93q82 0 132 -51.5t50 -148.5v-300h-123v275zM369 586q-33 0 -69.5 26t-52.5 26q-34 0 -42 -48l-77 7q14 133 107 133q34 0 70 -26.5t53 -26.5q34 0 42 49l76 -8 q-13 -132 -107 -132z" glyph-name="ntilde" horiz-adv-x="579" unicode="ñ"/><glyph d="M294 -13q-111 0 -180.5 70.5t-69.5 185.5t69.5 186t180.5 71q112 0 181 -71t69 -186t-69 -185.5t-181 -70.5zM294 89q57 0 92 41.5t35 112.5t-35 112.5t-92 41.5q-56 0 -91.5 -41.5t-35.5 -112.5t35.5 -112.5t91.5 -41.5zM362 551l-233 116l49 90l225 -129z" glyph-name="ograve" horiz-adv-x="589" unicode="ò"/><glyph d="M294 -13q-111 0 -180.5 70.5t-69.5 185.5t69.5 186t180.5 71q112 0 181 -71t69 -186t-69 -185.5t-181 -70.5zM294 89q57 0 92 41.5t35 112.5t-35 112.5t-92 41.5q-56 0 -91.5 -41.5t-35.5 -112.5t35.5 -112.5t91.5 -41.5zM190 551l-41 77l225 129l49 -90z" glyph-name="oacute" horiz-adv-x="589" unicode="ó"/><glyph d="M294 -13q-111 0 -180.5 70.5t-69.5 185.5t69.5 186t180.5 71q112 0 181 -71t69 -186t-69 -185.5t-181 -70.5zM294 89q57 0 92 41.5t35 112.5t-35 112.5t-92 41.5q-56 0 -91.5 -41.5t-35.5 -112.5t35.5 -112.5t91.5 -41.5zM182 556l-53 60l166 146l165 -146l-53 -60 l-112 84z" glyph-name="ocircumflex" horiz-adv-x="589" unicode="ô"/><glyph d="M294 -13q-111 0 -180.5 70.5t-69.5 185.5t69.5 186t180.5 71q112 0 181 -71t69 -186t-69 -185.5t-181 -70.5zM294 89q57 0 92 41.5t35 112.5t-35 112.5t-92 41.5q-56 0 -91.5 -41.5t-35.5 -112.5t35.5 -112.5t91.5 -41.5zM361 586q-33 0 -69.5 26t-52.5 26q-34 0 -42 -48 l-77 7q14 133 107 133q34 0 70 -26.5t53 -26.5q34 0 42 49l76 -8q-13 -132 -107 -132z" glyph-name="otilde" horiz-adv-x="589" unicode="õ"/><glyph d="M294 -13q-111 0 -180.5 70.5t-69.5 185.5t69.5 186t180.5 71q112 0 181 -71t69 -186t-69 -185.5t-181 -70.5zM294 89q57 0 92 41.5t35 112.5t-35 112.5t-92 41.5q-56 0 -91.5 -41.5t-35.5 -112.5t35.5 -112.5t91.5 -41.5zM195 582q-29 0 -47 19t-18 46q0 28 18 47t47 19 t47.5 -19t18.5 -47q0 -27 -18.5 -46t-47.5 -19zM394 582q-29 0 -47.5 19t-18.5 46q0 28 18.5 47t47.5 19t47 -19t18 -47q0 -27 -18 -46t-47 -19z" glyph-name="odieresis" horiz-adv-x="589" unicode="ö"/><glyph d="M60 302v91h500v-91h-500zM310 467q-27 0 -46 18.5t-19 46.5t19 47t46 19q28 0 46.5 -19t18.5 -47t-18.5 -46.5t-46.5 -18.5zM310 98q-27 0 -46 18.5t-19 46.5t19 46.5t46 18.5q28 0 46.5 -18.5t18.5 -46.5t-18.5 -46.5t-46.5 -18.5z" glyph-name="divide" horiz-adv-x="620" unicode="÷"/><glyph d="M294 -13q-50 0 -94 15l-54 -76l-99 71l53 75q-56 68 -56 171q0 115 69.5 186t180.5 71q50 0 96 -16l53 75l100 -71l-53 -76q54 -68 54 -169q0 -115 -69 -185.5t-181 -70.5zM294 89q57 0 92 41.5t35 112.5t-35 112.5t-92 41.5q-56 0 -91.5 -41.5t-35.5 -112.5t35.5 -112.5 t91.5 -41.5z" glyph-name="oslash" horiz-adv-x="589" unicode="ø"/><glyph d="M246 -13q-83 0 -135 49t-52 145v299l123 12v-286q0 -57 25.5 -87t73.5 -30q108 0 108 145v246l123 12v-492h-99l-7 79q-48 -92 -160 -92zM354 551l-233 116l49 90l225 -129z" glyph-name="ugrave" horiz-adv-x="579" unicode="ù"/><glyph d="M246 -13q-83 0 -135 49t-52 145v299l123 12v-286q0 -57 25.5 -87t73.5 -30q108 0 108 145v246l123 12v-492h-99l-7 79q-48 -92 -160 -92zM181 551l-41 77l225 129l49 -90z" glyph-name="uacute" horiz-adv-x="579" unicode="ú"/><glyph d="M246 -13q-83 0 -135 49t-52 145v299l123 12v-286q0 -57 25.5 -87t73.5 -30q108 0 108 145v246l123 12v-492h-99l-7 79q-48 -92 -160 -92zM173 556l-53 60l166 146l165 -146l-53 -60l-112 84z" glyph-name="ucircumflex" horiz-adv-x="579" unicode="û"/><glyph d="M246 -13q-83 0 -135 49t-52 145v299l123 12v-286q0 -57 25.5 -87t73.5 -30q108 0 108 145v246l123 12v-492h-99l-7 79q-48 -92 -160 -92zM186 582q-29 0 -47 19t-18 46q0 28 18 47t47 19t47.5 -19t18.5 -47q0 -27 -18.5 -46t-47.5 -19zM385 582q-29 0 -47.5 19t-18.5 46 q0 28 18.5 47t47.5 19t47 -19t18 -47q0 -27 -18 -46t-47 -19z" glyph-name="udieresis" horiz-adv-x="579" unicode="ü"/><glyph d="M255 -238q-111 0 -190 62l41 86q70 -49 140 -49q73 0 108 32t35 103v55q-49 -64 -143 -64q-83 0 -135 49t-52 145v299l123 12v-286q0 -57 25.5 -87t73.5 -30q108 0 108 145v246l123 12v-496q0 -105 -71.5 -169.5t-185.5 -64.5zM186 551l-41 77l225 129l49 -90z" glyph-name="yacute" horiz-adv-x="579" unicode="ý"/><glyph d="M350 -13q-101 0 -160 81v-283l-123 -18v965l123 16v-329q59 81 160 81q97 0 159 -71t62 -186q0 -114 -62 -185t-159 -71zM320 87q57 0 92.5 42t35.5 114t-35.5 114t-92.5 42q-58 0 -94 -42t-36 -114t36 -114t94 -42z" glyph-name="thorn" horiz-adv-x="616" unicode="þ"/><glyph d="M255 -238q-111 0 -190 62l41 86q70 -49 140 -49q73 0 108 32t35 103v55q-49 -64 -143 -64q-83 0 -135 49t-52 145v299l123 12v-286q0 -57 25.5 -87t73.5 -30q108 0 108 145v246l123 12v-496q0 -105 -71.5 -169.5t-185.5 -64.5zM191 582q-29 0 -47 19t-18 46q0 28 18 47 t47 19t47.5 -19t18.5 -47q0 -27 -18.5 -46t-47.5 -19zM390 582q-29 0 -47.5 19t-18.5 46q0 28 18.5 47t47.5 19t47 -19t18 -47q0 -27 -18 -46t-47 -19z" glyph-name="ydieresis" horiz-adv-x="579" unicode="ÿ"/><glyph d="M171 -9l-129 18l291 681h98l287 -681l-123 -18l-67 160h-291zM231 797v93h295l-13 -93h-282zM278 249h210l-105 253z" glyph-name="Amacron" horiz-adv-x="760" unicode="Ā"/><glyph d="M480 -13q-95 0 -121 71q-56 -71 -156 -71q-71 0 -117 38t-46 107q0 75 58 115t160 40q44 0 100 -9l1 17q1 51 -32 77t-87 26q-70 0 -129 -43l-52 85q75 59 190 59q105 0 166 -48t59 -142l-3 -162q-1 -52 43 -52q14 0 26 3v-103q-32 -8 -60 -8zM121 593v93h295l-13 -93 h-282zM165 142q0 -30 23 -46t55 -16q46 0 76.5 33.5t33.5 90.5q-39 9 -76 9q-51 0 -81.5 -18t-30.5 -53z" glyph-name="amacron" horiz-adv-x="575" unicode="ā"/><glyph d="M171 -9l-129 18l291 681h98l287 -681l-123 -18l-67 160h-291zM378 766q-70 0 -112.5 46.5t-38.5 121.5l80 3q0 -42 18.5 -66t52.5 -24q35 0 53.5 23.5t18.5 66.5l80 -3q4 -75 -39 -121.5t-113 -46.5zM278 249h210l-105 253z" glyph-name="Abreve" horiz-adv-x="760" unicode="Ă"/><glyph d="M480 -13q-95 0 -121 71q-56 -71 -156 -71q-71 0 -117 38t-46 107q0 75 58 115t160 40q44 0 100 -9l1 17q1 51 -32 77t-87 26q-70 0 -129 -43l-52 85q75 59 190 59q105 0 166 -48t59 -142l-3 -162q-1 -52 43 -52q14 0 26 3v-103q-32 -8 -60 -8zM268 562q-70 0 -112.5 46.5 t-38.5 121.5l80 3q0 -42 18.5 -66t52.5 -24q35 0 53.5 23.5t18.5 66.5l80 -3q4 -75 -39 -121.5t-113 -46.5zM165 142q0 -30 23 -46t55 -16q46 0 76.5 33.5t33.5 90.5q-39 9 -76 9q-51 0 -81.5 -18t-30.5 -53z" glyph-name="abreve" horiz-adv-x="575" unicode="ă"/><glyph d="M171 -9l-129 18l291 681h98l287 -681h-1q-87 -46 -87 -106q0 -24 14.5 -37.5t38.5 -13.5q18 0 35 7l19 -72q-42 -16 -78 -16q-55 0 -91 29t-36 80q0 71 77 113l-14 -2l-67 160h-291zM278 249h210l-105 253z" glyph-name="Aogonek" horiz-adv-x="760" unicode="Ą"/><glyph d="M203 -13q-71 0 -117 38t-46 107q0 75 58 115t160 40q44 0 100 -9l1 17q1 51 -32 77t-87 26q-70 0 -129 -43l-52 85q75 59 190 59q105 0 166 -48t59 -142l-3 -162q-1 -52 43 -52q14 0 26 3v-103q-87 -46 -87 -106q0 -24 14.5 -37.5t38.5 -13.5q18 0 35 7l19 -72 q-42 -16 -78 -16q-55 0 -91 29t-36 80q0 80 97 123q-71 10 -93 69q-56 -71 -156 -71zM165 142q0 -30 23 -46t55 -16q46 0 76.5 33.5t33.5 90.5q-39 9 -76 9q-51 0 -81.5 -18t-30.5 -53z" glyph-name="aogonek" horiz-adv-x="575" unicode="ą"/><glyph d="M409 -13q-157 0 -256 99t-99 259t99 259t256 99q119 0 207 -55l-43 -93q-71 44 -155 44q-104 0 -169.5 -70t-65.5 -184t65.5 -184t169.5 -70q84 0 155 44l43 -93q-88 -55 -207 -55zM298 755l-41 77l225 129l49 -90z" glyph-name="Cacute" horiz-adv-x="667" unicode="Ć"/><glyph d="M307 -13q-118 0 -190.5 70t-72.5 186t73 186.5t190 70.5q85 0 153 -39l-42 -91q-49 27 -96 27q-69 0 -110 -43.5t-41 -110.5t41 -110.5t110 -43.5q47 0 96 27l42 -91q-66 -38 -153 -38zM195 551l-41 77l225 129l49 -90z" glyph-name="cacute" horiz-adv-x="498" unicode="ć"/><glyph d="M409 -13q-157 0 -256 99t-99 259t99 259t256 99q119 0 207 -55l-43 -93q-71 44 -155 44q-104 0 -169.5 -70t-65.5 -184t65.5 -184t169.5 -70q84 0 155 44l43 -93q-88 -55 -207 -55zM290 760l-53 60l166 146l165 -146l-53 -60l-112 84z" glyph-name="Ccircumflex" horiz-adv-x="667" unicode="Ĉ"/><glyph d="M307 -13q-118 0 -190.5 70t-72.5 186t73 186.5t190 70.5q85 0 153 -39l-42 -91q-49 27 -96 27q-69 0 -110 -43.5t-41 -110.5t41 -110.5t110 -43.5q47 0 96 27l42 -91q-66 -38 -153 -38zM187 556l-53 60l166 146l165 -146l-53 -60l-112 84z" glyph-name="ccircumflex" horiz-adv-x="498" unicode="ĉ"/><glyph d="M409 -13q-157 0 -256 99t-99 259t99 259t256 99q119 0 207 -55l-43 -93q-71 44 -155 44q-104 0 -169.5 -70t-65.5 -184t65.5 -184t169.5 -70q84 0 155 44l43 -93q-88 -55 -207 -55zM402 780q-34 0 -55.5 22t-21.5 55t21.5 55t55.5 22t55.5 -22t21.5 -55t-21.5 -55 t-55.5 -22z" glyph-name="Cdotaccent" horiz-adv-x="667" unicode="Ċ"/><glyph d="M307 -13q-118 0 -190.5 70t-72.5 186t73 186.5t190 70.5q85 0 153 -39l-42 -91q-49 27 -96 27q-69 0 -110 -43.5t-41 -110.5t41 -110.5t110 -43.5q47 0 96 27l42 -91q-66 -38 -153 -38zM299 576q-34 0 -55.5 22t-21.5 55t21.5 55t55.5 22t55.5 -22t21.5 -55t-21.5 -55 t-55.5 -22z" glyph-name="cdotaccent" horiz-adv-x="498" unicode="ċ"/><glyph d="M409 -13q-157 0 -256 99t-99 259t99 259t256 99q119 0 207 -55l-43 -93q-71 44 -155 44q-104 0 -169.5 -70t-65.5 -184t65.5 -184t169.5 -70q84 0 155 44l43 -93q-88 -55 -207 -55zM403 754l-166 146l53 60l113 -88l112 88l53 -60z" glyph-name="Ccaron" horiz-adv-x="667" unicode="Č"/><glyph d="M307 -13q-118 0 -190.5 70t-72.5 186t73 186.5t190 70.5q85 0 153 -39l-42 -91q-49 27 -96 27q-69 0 -110 -43.5t-41 -110.5t41 -110.5t110 -43.5q47 0 96 27l42 -91q-66 -38 -153 -38zM300 550l-166 146l53 60l113 -88l112 88l53 -60z" glyph-name="ccaron" horiz-adv-x="498" unicode="č"/><glyph d="M281 -13q-110 0 -201 16v684q91 16 201 16q193 0 297 -98.5t104 -259.5t-104 -259.5t-297 -98.5zM311 754l-166 146l53 60l113 -88l112 88l53 -60zM208 92q45 -3 81 -3q130 0 197 70t67 186t-67 186t-197 70q-36 0 -81 -3v-506z" glyph-name="Dcaron" horiz-adv-x="736" unicode="Ď"/><glyph d="M267 -13q-97 0 -159.5 71t-62.5 185t62.5 185.5t159.5 71.5q103 0 160 -83v314l123 18v-749h-100l-7 95q-58 -108 -176 -108zM297 87q57 0 93.5 42t36.5 114t-36.5 114t-93.5 42q-58 0 -93.5 -42t-35.5 -114t35.5 -114t93.5 -42zM612 563q49 29 54 69l-53 16q-6 19 -6 37 q0 31 19.5 49.5t46.5 18.5q32 0 52 -23t20 -66q0 -95 -102 -150z" glyph-name="dcaron" horiz-adv-x="616" unicode="ď"/><glyph d="M281 -13q-110 0 -201 16v293h-79v99h79v292q91 16 201 16q193 0 297 -98.5t104 -259.5t-104 -259.5t-297 -98.5zM208 92q45 -3 81 -3q130 0 197 70t67 186t-67 186t-197 70q-36 0 -81 -3v-203h156l-12 -99h-144v-204z" glyph-name="Dcroat" horiz-adv-x="736" unicode="Đ"/><glyph d="M267 -13q-97 0 -159.5 71t-62.5 185t62.5 185.5t159.5 71.5q103 0 160 -83v137h-165v92h165v85l123 18v-103h77v-92h-77v-554h-100l-7 95q-58 -108 -176 -108zM297 87q57 0 93.5 42t36.5 114t-36.5 114t-93.5 42q-58 0 -93.5 -42t-35.5 -114t35.5 -114t93.5 -42z" glyph-name="dcroat" horiz-adv-x="616" unicode="đ"/><glyph d="M80 0v690h441l-13 -104h-300v-184h264v-104h-264v-194h318l-13 -104h-433zM159 797v93h295l-13 -93h-282z" glyph-name="Emacron" horiz-adv-x="573" unicode="Ē"/><glyph d="M306 -13q-121 0 -191.5 71t-70.5 185q0 117 66 186.5t174 69.5q102 0 163 -60.5t61 -163.5q0 -35 -8 -64h-332q9 -56 48 -91.5t104 -35.5q69 0 128 39l35 -86q-76 -50 -177 -50zM138 593v93h295l-13 -93h-282zM170 296h229q-4 47 -33 77.5t-79 30.5q-96 0 -117 -108z" glyph-name="emacron" horiz-adv-x="553" unicode="ē"/><glyph d="M80 0v690h441l-13 -104h-300v-184h264v-104h-264v-194h318l-13 -104h-433zM306 766q-70 0 -112.5 46.5t-38.5 121.5l80 3q0 -42 18.5 -66t52.5 -24q35 0 53.5 23.5t18.5 66.5l80 -3q4 -75 -39 -121.5t-113 -46.5z" glyph-name="Ebreve" horiz-adv-x="573" unicode="Ĕ"/><glyph d="M306 -13q-121 0 -191.5 71t-70.5 185q0 117 66 186.5t174 69.5q102 0 163 -60.5t61 -163.5q0 -35 -8 -64h-332q9 -56 48 -91.5t104 -35.5q69 0 128 39l35 -86q-76 -50 -177 -50zM285 562q-70 0 -112.5 46.5t-38.5 121.5l80 3q0 -42 18.5 -66t52.5 -24q35 0 53.5 23.5 t18.5 66.5l80 -3q4 -75 -39 -121.5t-113 -46.5zM170 296h229q-4 47 -33 77.5t-79 30.5q-96 0 -117 -108z" glyph-name="ebreve" horiz-adv-x="553" unicode="ĕ"/><glyph d="M80 0v690h441l-13 -104h-300v-184h264v-104h-264v-194h318l-13 -104h-433zM307 780q-34 0 -55.5 22t-21.5 55t21.5 55t55.5 22t55.5 -22t21.5 -55t-21.5 -55t-55.5 -22z" glyph-name="Edotaccent" horiz-adv-x="573" unicode="Ė"/><glyph d="M306 -13q-121 0 -191.5 71t-70.5 185q0 117 66 186.5t174 69.5q102 0 163 -60.5t61 -163.5q0 -35 -8 -64h-332q9 -56 48 -91.5t104 -35.5q69 0 128 39l35 -86q-76 -50 -177 -50zM285 576q-34 0 -55.5 22t-21.5 55t21.5 55t55.5 22t55.5 -22t21.5 -55t-21.5 -55t-55.5 -22 zM170 296h229q-4 47 -33 77.5t-79 30.5q-96 0 -117 -108z" glyph-name="edotaccent" horiz-adv-x="553" unicode="ė"/><glyph d="M80 0v690h441l-13 -104h-300v-184h264v-104h-264v-194h318l-13 -104q-87 -46 -87 -106q0 -24 14.5 -37.5t38.5 -13.5q18 0 35 7l19 -72q-42 -16 -78 -16q-55 0 -91 29t-36 80q0 86 111 129h-359z" glyph-name="Eogonek" horiz-adv-x="573" unicode="Ę"/><glyph d="M306 -13q-121 0 -191.5 71t-70.5 185q0 117 66 186.5t174 69.5q102 0 163 -60.5t61 -163.5q0 -35 -8 -64h-332q9 -56 48 -91.5t104 -35.5q69 0 128 39l35 -86q-88 -99 -88 -148q0 -24 14.5 -38t38.5 -14q18 0 35 7l19 -73q-45 -15 -78 -15q-55 0 -91 29t-36 80 q0 65 70 127q-32 -5 -61 -5zM170 296h229q-4 47 -33 77.5t-79 30.5q-96 0 -117 -108z" glyph-name="eogonek" horiz-adv-x="553" unicode="ę"/><glyph d="M80 0v690h441l-13 -104h-300v-184h264v-104h-264v-194h318l-13 -104h-433zM307 754l-166 146l53 60l113 -88l112 88l53 -60z" glyph-name="Ecaron" horiz-adv-x="573" unicode="Ě"/><glyph d="M306 -13q-121 0 -191.5 71t-70.5 185q0 117 66 186.5t174 69.5q102 0 163 -60.5t61 -163.5q0 -35 -8 -64h-332q9 -56 48 -91.5t104 -35.5q69 0 128 39l35 -86q-76 -50 -177 -50zM286 550l-166 146l53 60l113 -88l112 88l53 -60zM170 296h229q-4 47 -33 77.5t-79 30.5 q-96 0 -117 -108z" glyph-name="ecaron" horiz-adv-x="553" unicode="ě"/><glyph d="M402 -11q-156 0 -252 98t-96 258t101.5 259t265.5 99q125 0 220 -55l-44 -93q-77 46 -166 46q-111 0 -180.5 -70.5t-69.5 -185.5t62.5 -184t164.5 -69q68 0 122 28v146h-171l12 99h281v-307q-114 -69 -250 -69zM290 760l-53 60l166 146l165 -146l-53 -60l-112 84z" glyph-name="Gcircumflex" horiz-adv-x="713" unicode="Ĝ"/><glyph d="M276 -237q-103 0 -209 49l41 93q83 -40 159 -40q79 0 120 42t41 121v52q-58 -82 -163 -82q-97 0 -159 69t-62 181t62 181t159 69q124 0 181 -112l5 100h100v-464q0 -122 -73.5 -190.5t-201.5 -68.5zM295 95q59 0 96 41.5t37 111.5q0 71 -37 112.5t-96 41.5t-95 -41.5 t-36 -112.5q0 -70 36 -111.5t95 -41.5zM196 556l-53 60l166 146l165 -146l-53 -60l-112 84z" glyph-name="gcircumflex" horiz-adv-x="618" unicode="ĝ"/><glyph d="M402 -11q-156 0 -252 98t-96 258t101.5 259t265.5 99q125 0 220 -55l-44 -93q-77 46 -166 46q-111 0 -180.5 -70.5t-69.5 -185.5t62.5 -184t164.5 -69q68 0 122 28v146h-171l12 99h281v-307q-114 -69 -250 -69zM402 766q-70 0 -112.5 46.5t-38.5 121.5l80 3 q0 -42 18.5 -66t52.5 -24q35 0 53.5 23.5t18.5 66.5l80 -3q4 -75 -39 -121.5t-113 -46.5z" glyph-name="Gbreve" horiz-adv-x="713" unicode="Ğ"/><glyph d="M276 -237q-103 0 -209 49l41 93q83 -40 159 -40q79 0 120 42t41 121v52q-58 -82 -163 -82q-97 0 -159 69t-62 181t62 181t159 69q124 0 181 -112l5 100h100v-464q0 -122 -73.5 -190.5t-201.5 -68.5zM295 95q59 0 96 41.5t37 111.5q0 71 -37 112.5t-96 41.5t-95 -41.5 t-36 -112.5q0 -70 36 -111.5t95 -41.5zM309 562q-70 0 -112.5 46.5t-38.5 121.5l80 3q0 -42 18.5 -66t52.5 -24q35 0 53.5 23.5t18.5 66.5l80 -3q4 -75 -39 -121.5t-113 -46.5z" glyph-name="gbreve" horiz-adv-x="618" unicode="ğ"/><glyph d="M402 -11q-156 0 -252 98t-96 258t101.5 259t265.5 99q125 0 220 -55l-44 -93q-77 46 -166 46q-111 0 -180.5 -70.5t-69.5 -185.5t62.5 -184t164.5 -69q68 0 122 28v146h-171l12 99h281v-307q-114 -69 -250 -69zM402 780q-34 0 -55.5 22t-21.5 55t21.5 55t55.5 22 t55.5 -22t21.5 -55t-21.5 -55t-55.5 -22z" glyph-name="Gdotaccent" horiz-adv-x="713" unicode="Ġ"/><glyph d="M276 -237q-103 0 -209 49l41 93q83 -40 159 -40q79 0 120 42t41 121v52q-58 -82 -163 -82q-97 0 -159 69t-62 181t62 181t159 69q124 0 181 -112l5 100h100v-464q0 -122 -73.5 -190.5t-201.5 -68.5zM295 95q59 0 96 41.5t37 111.5q0 71 -37 112.5t-96 41.5t-95 -41.5 t-36 -112.5q0 -70 36 -111.5t95 -41.5zM309 576q-34 0 -55.5 22t-21.5 55t21.5 55t55.5 22t55.5 -22t21.5 -55t-21.5 -55t-55.5 -22z" glyph-name="gdotaccent" horiz-adv-x="618" unicode="ġ"/><glyph d="M402 -11q-156 0 -252 98t-96 258t101.5 259t265.5 99q125 0 220 -55l-44 -93q-77 46 -166 46q-111 0 -180.5 -70.5t-69.5 -185.5t62.5 -184t164.5 -69q68 0 122 28v146h-171l12 99h281v-307q-114 -69 -250 -69zM336 -276q49 29 54 69l-53 16q-6 19 -6 37q0 32 19.5 50.5 t46.5 18.5q32 0 52 -23.5t20 -66.5q0 -95 -102 -150z" glyph-name="uni0122" horiz-adv-x="713" unicode="Ģ"/><glyph d="M276 -237q-103 0 -209 49l41 93q83 -40 159 -40q79 0 120 42t41 121v52q-58 -82 -163 -82q-97 0 -159 69t-62 181t62 181t159 69q124 0 181 -112l5 100h100v-464q0 -122 -73.5 -190.5t-201.5 -68.5zM295 95q59 0 96 41.5t37 111.5q0 71 -37 112.5t-96 41.5t-95 -41.5 t-36 -112.5q0 -70 36 -111.5t95 -41.5zM372 752q-48 -30 -53 -68l52 -17q7 -18 7 -37q0 -32 -19.5 -50t-47.5 -18q-31 0 -51 23t-20 66q0 95 102 150z" glyph-name="uni0123" horiz-adv-x="618" unicode="ģ"/><glyph d="M509 0v298h-301v-298h-128v681l128 19v-298h301v279l129 19v-700h-129zM246 760l-53 60l166 146l165 -146l-53 -60l-112 84z" glyph-name="Hcircumflex" horiz-adv-x="717" unicode="Ĥ"/><glyph d="M67 0v731l123 18v-320q52 71 148 71q82 0 132 -51.5t50 -148.5v-300h-123v275q0 122 -94 122q-52 0 -82.5 -39.5t-30.5 -110.5v-247h-123zM16 810l-53 60l166 146l165 -146l-53 -60l-112 84z" glyph-name="hcircumflex" horiz-adv-x="579" unicode="ĥ"/><glyph d="M548 0v298h-301v-298h-128v506h-75v92h75v83l128 19v-102h301v83l129 19v-102h76l-13 -92h-63v-506h-129zM247 402h301v104h-301v-104z" glyph-name="Hbar" horiz-adv-x="800" unicode="Ħ"/><glyph d="M67 0v554h-78v92h78v85l123 18v-103h164v-92h-164v-125q52 71 148 71q82 0 132 -51.5t50 -148.5v-300h-123v275q0 122 -94 122q-52 0 -82.5 -39.5t-30.5 -110.5v-247h-123z" glyph-name="hbar" horiz-adv-x="579" unicode="ħ"/><glyph d="M80 0v681l123 18v-699h-123zM203 790q-33 0 -69.5 26t-52.5 26q-34 0 -42 -48l-77 7q14 133 107 133q34 0 70 -26.5t53 -26.5q34 0 42 49l76 -8q-13 -132 -107 -132z" glyph-name="Itilde" horiz-adv-x="282" unicode="Ĩ"/><glyph d="M66 0v477l123 18v-495h-123zM194 586q-33 0 -69.5 26t-52.5 26q-34 0 -42 -48l-77 7q14 133 107 133q34 0 70 -26.5t53 -26.5q34 0 42 49l76 -8q-13 -132 -107 -132z" glyph-name="itilde" horiz-adv-x="256" unicode="ĩ"/><glyph d="M80 0v681l123 18v-699h-123zM-12 797v93h295l-13 -93h-282z" glyph-name="Imacron" horiz-adv-x="282" unicode="Ī"/><glyph d="M66 0v477l123 18v-495h-123zM20 585v92h222l-12 -92h-210z" glyph-name="imacron" horiz-adv-x="256" unicode="ī"/><glyph d="M80 0v681l123 18v-699h-123zM135 766q-70 0 -112.5 46.5t-38.5 121.5l80 3q0 -42 18.5 -66t52.5 -24q35 0 53.5 23.5t18.5 66.5l80 -3q4 -75 -39 -121.5t-113 -46.5z" glyph-name="Ibreve" horiz-adv-x="282" unicode="Ĭ"/><glyph d="M66 0v477l123 18v-495h-123zM127 562q-70 0 -112.5 46.5t-38.5 121.5l80 3q0 -42 18.5 -66t52.5 -24q35 0 53.5 23.5t18.5 66.5l80 -3q4 -75 -39 -121.5t-113 -46.5z" glyph-name="ibreve" horiz-adv-x="256" unicode="ĭ"/><glyph d="M80 0v681l123 18v-699h-1q-87 -46 -87 -106q0 -24 14.5 -37.5t38.5 -13.5q18 0 35 7l19 -72q-42 -16 -78 -16q-55 0 -91 29t-36 80q0 86 111 129h-48z" glyph-name="Iogonek" horiz-adv-x="282" unicode="Į"/><glyph d="M66 0v477l123 18v-495q-87 -46 -87 -106q0 -24 14.5 -37.5t38.5 -13.5q18 0 35 7l19 -72q-42 -16 -78 -16q-55 0 -91 29t-36 80q0 86 111 129h-49zM128 576q-34 0 -55.5 22t-21.5 55t21.5 55t55.5 22t55.5 -22t21.5 -55t-21.5 -55t-55.5 -22z" glyph-name="iogonek" horiz-adv-x="256" unicode="į"/><glyph d="M80 0v681l123 18v-699h-123zM136 780q-34 0 -55.5 22t-21.5 55t21.5 55t55.5 22t55.5 -22t21.5 -55t-21.5 -55t-55.5 -22z" glyph-name="Idotaccent" horiz-adv-x="282" unicode="İ"/><glyph d="M66 0v477l123 18v-495h-123z" glyph-name="dotlessi" horiz-adv-x="256" unicode="ı"/><glyph d="M80 0v681l123 18v-699h-123zM489 -13q-99 0 -175 42l41 94q60 -30 116 -30q129 0 129 139v449l129 18v-467q0 -120 -63 -182.5t-177 -62.5z" glyph-name="IJ" horiz-adv-x="803" unicode="Ĳ"/><glyph d="M66 0v477l123 18v-495h-123zM128 576q-34 0 -55.5 22t-21.5 55t21.5 55t55.5 22t55.5 -22t21.5 -55t-21.5 -55t-55.5 -22zM271 -206q51 99 51 217v466l123 18v-479q0 -150 -68 -268zM383 576q-34 0 -55.5 22t-21.5 55t21.5 55t55.5 22t55.5 -22t21.5 -55t-21.5 -55 t-55.5 -22z" glyph-name="ij" horiz-adv-x="511" unicode="ĳ"/><glyph d="M212 -13q-99 0 -175 42l41 94q60 -30 116 -30q129 0 129 139v449l129 18v-467q0 -120 -63 -182.5t-177 -62.5zM289 748l-54 60l153 146l153 -146l-54 -60l-99 81z" glyph-name="Jcircumflex" horiz-adv-x="525" unicode="Ĵ"/><glyph d="M15 -206q51 99 51 217v466l123 18v-479q0 -150 -68 -268zM28 544l-54 60l153 146l153 -146l-54 -60l-99 81z" glyph-name="jcircumflex" horiz-adv-x="255" unicode="ĵ"/><glyph d="M80 0v681l128 18v-327q135 9 193.5 89t65.5 220l123 18q0 -235 -144 -348l200 -342l-128 -18l-177 303q-59 -20 -133 -24v-270h-128zM270 -276q49 29 54 69l-53 16q-6 19 -6 37q0 32 19.5 50.5t46.5 18.5q32 0 52 -23.5t20 -66.5q0 -95 -102 -150z" glyph-name="uni0136" horiz-adv-x="693" unicode="Ķ"/><glyph d="M67 0v731l123 18v-452q179 13 182 181l123 18q2 -76 -27 -139t-88 -104l160 -244l-133 -18l-137 212q-38 -9 -80 -12v-191h-123zM211 -276q49 29 54 69l-53 16q-6 19 -6 37q0 32 19.5 50.5t46.5 18.5q32 0 52 -23.5t20 -66.5q0 -95 -102 -150z" glyph-name="uni0137" horiz-adv-x="574" unicode="ķ"/><glyph d="M67 0v477l123 18v-198q179 13 182 181l123 18q2 -76 -27 -139t-88 -104l160 -244l-133 -18l-137 212q-38 -9 -80 -12v-191h-123z" glyph-name="kgreenlandic" horiz-adv-x="574" unicode="ĸ"/><glyph d="M80 0v681l128 19v-596h300l-13 -104h-415zM39 755l-41 77l225 129l49 -90z" glyph-name="Lacute" horiz-adv-x="533" unicode="Ĺ"/><glyph d="M217 -11q-154 0 -154 180v562l123 18v-582q0 -75 60 -75q20 0 37 7l25 -93q-41 -17 -91 -17zM20 805l-41 77l225 129l49 -90z" glyph-name="lacute" horiz-adv-x="339" unicode="ĺ"/><glyph d="M80 0v681l128 19v-596h300l-13 -104h-415zM242 -276q49 29 54 69l-53 16q-6 19 -6 37q0 32 19.5 50.5t46.5 18.5q32 0 52 -23.5t20 -66.5q0 -95 -102 -150z" glyph-name="uni013B" horiz-adv-x="533" unicode="Ļ"/><glyph d="M217 -11q-154 0 -154 180v562l123 18v-582q0 -75 60 -75q20 0 37 7l25 -93q-41 -17 -91 -17zM108 -276q49 29 54 69l-53 16q-6 19 -6 37q0 32 19.5 50.5t46.5 18.5q32 0 52 -23.5t20 -66.5q0 -95 -102 -150z" glyph-name="uni013C" horiz-adv-x="339" unicode="ļ"/><glyph d="M80 0v681l128 19v-596h300l-13 -104h-415zM276 513q49 29 54 69l-53 16q-6 20 -6 37q0 31 19.5 49.5t46.5 18.5q32 0 52 -23t20 -66q0 -95 -102 -150z" glyph-name="Lcaron" horiz-adv-x="533" unicode="Ľ"/><glyph d="M217 -11q-154 0 -154 180v562l123 18v-582q0 -75 60 -75q20 0 37 7l25 -93q-41 -17 -91 -17zM248 563q49 29 54 69l-53 16q-6 19 -6 37q0 31 19.5 49.5t46.5 18.5q32 0 52 -23t20 -66q0 -95 -102 -150z" glyph-name="lcaron" horiz-adv-x="339" unicode="ľ"/><glyph d="M80 0v681l128 19v-596h300l-13 -104h-415zM401 310q-35 0 -56.5 22t-21.5 56t21.5 56t56.5 22t56.5 -22t21.5 -56t-21.5 -56t-56.5 -22z" glyph-name="Ldot" horiz-adv-x="533" unicode="Ŀ"/><glyph d="M217 -11q-154 0 -154 180v562l123 18v-582q0 -75 60 -75q20 0 37 7l25 -93q-41 -17 -91 -17zM344 307q-35 0 -56.5 22t-21.5 56t21.5 56t56.5 22t56.5 -22t21.5 -56t-21.5 -56t-56.5 -22z" glyph-name="ldot" horiz-adv-x="438" unicode="ŀ"/><glyph d="M80 0v310l-62 -29l-41 89l103 48v263l128 19v-238l78 37l41 -89l-119 -56v-250h300l-13 -104h-415z" glyph-name="Lslash" horiz-adv-x="533" unicode="Ł"/><glyph d="M293 -11q-154 0 -154 180v168l-64 -30l-41 89l105 49v286l123 18v-262l81 38l41 -89l-122 -58v-211q0 -75 60 -75q20 0 37 7l25 -93q-41 -17 -91 -17z" glyph-name="lslash" horiz-adv-x="430" unicode="ł"/><glyph d="M79 0v690h100l340 -482v473l113 18v-699h-101l-339 482v-482h-113zM265 755l-41 77l225 129l49 -90z" glyph-name="Nacute" horiz-adv-x="712" unicode="Ń"/><glyph d="M397 275q0 122 -94 122q-52 0 -82.5 -39.5t-30.5 -110.5v-247h-123v478l109 16v-87q52 93 162 93q82 0 132 -51.5t50 -148.5v-300h-123v275zM198 551l-41 77l225 129l49 -90z" glyph-name="nacute" horiz-adv-x="579" unicode="ń"/><glyph d="M79 0v690h100l340 -482v473l113 18v-699h-101l-339 482v-482h-113zM292 -276q49 29 54 69l-53 16q-6 19 -6 37q0 32 19.5 50.5t46.5 18.5q32 0 52 -23.5t20 -66.5q0 -95 -102 -150z" glyph-name="uni0145" horiz-adv-x="712" unicode="Ņ"/><glyph d="M397 275q0 122 -94 122q-52 0 -82.5 -39.5t-30.5 -110.5v-247h-123v478l109 16v-87q52 93 162 93q82 0 132 -51.5t50 -148.5v-300h-123v275zM231 -276q49 29 54 69l-53 16q-6 19 -6 37q0 32 19.5 50.5t46.5 18.5q32 0 52 -23.5t20 -66.5q0 -95 -102 -150z" glyph-name="uni0146" horiz-adv-x="579" unicode="ņ"/><glyph d="M79 0v690h100l340 -482v473l113 18v-699h-101l-339 482v-482h-113zM370 754l-166 146l53 60l113 -88l112 88l53 -60z" glyph-name="Ncaron" horiz-adv-x="712" unicode="Ň"/><glyph d="M397 275q0 122 -94 122q-52 0 -82.5 -39.5t-30.5 -110.5v-247h-123v478l109 16v-87q52 93 162 93q82 0 132 -51.5t50 -148.5v-300h-123v275zM303 550l-166 146l53 60l113 -88l112 88l53 -60z" glyph-name="ncaron" horiz-adv-x="579" unicode="ň"/><glyph d="M397 275q0 122 -94 122q-52 0 -82.5 -39.5t-30.5 -110.5v-247h-123v478l109 16v-87q52 93 162 93q82 0 132 -51.5t50 -148.5v-300h-123v275zM72 621q49 29 54 69l-53 16q-6 20 -6 37q0 31 19.5 49.5t46.5 18.5q32 0 52 -23t20 -66q0 -95 -102 -150z" glyph-name="napostrophe" horiz-adv-x="579" unicode="ŉ"/><glyph d="M468 -205q50 92 50 216v7l-326 464v-482h-113v690h100l340 -482v473l113 18v-683q0 -146 -66 -264z" glyph-name="Eng" horiz-adv-x="712" unicode="Ŋ"/><glyph d="M346 -206q51 96 51 217v264q0 122 -94 122q-52 0 -82.5 -39.5t-30.5 -110.5v-247h-123v478l109 16v-87q52 93 162 93q82 0 132 -51.5t50 -148.5v-284q0 -149 -67 -268z" glyph-name="eng" horiz-adv-x="579" unicode="ŋ"/><glyph d="M390 -13q-148 0 -242 100.5t-94 257.5t94 257.5t242 100.5q147 0 241 -100.5t94 -257.5t-94 -257.5t-241 -100.5zM390 90q97 0 151.5 71.5t54.5 183.5t-54.5 183.5t-151.5 71.5t-152 -71.5t-55 -183.5t55 -183.5t152 -71.5zM242 797v93h295l-13 -93h-282z" glyph-name="Omacron" horiz-adv-x="779" unicode="Ō"/><glyph d="M294 -13q-111 0 -180.5 70.5t-69.5 185.5t69.5 186t180.5 71q112 0 181 -71t69 -186t-69 -185.5t-181 -70.5zM294 89q57 0 92 41.5t35 112.5t-35 112.5t-92 41.5q-56 0 -91.5 -41.5t-35.5 -112.5t35.5 -112.5t91.5 -41.5zM147 593v93h295l-13 -93h-282z" glyph-name="omacron" horiz-adv-x="589" unicode="ō"/><glyph d="M390 -13q-148 0 -242 100.5t-94 257.5t94 257.5t242 100.5q147 0 241 -100.5t94 -257.5t-94 -257.5t-241 -100.5zM390 90q97 0 151.5 71.5t54.5 183.5t-54.5 183.5t-151.5 71.5t-152 -71.5t-55 -183.5t55 -183.5t152 -71.5zM389 766q-70 0 -112.5 46.5t-38.5 121.5l80 3 q0 -42 18.5 -66t52.5 -24q35 0 53.5 23.5t18.5 66.5l80 -3q4 -75 -39 -121.5t-113 -46.5z" glyph-name="Obreve" horiz-adv-x="779" unicode="Ŏ"/><glyph d="M294 -13q-111 0 -180.5 70.5t-69.5 185.5t69.5 186t180.5 71q112 0 181 -71t69 -186t-69 -185.5t-181 -70.5zM294 89q57 0 92 41.5t35 112.5t-35 112.5t-92 41.5q-56 0 -91.5 -41.5t-35.5 -112.5t35.5 -112.5t91.5 -41.5zM294 562q-70 0 -112.5 46.5t-38.5 121.5l80 3 q0 -42 18.5 -66t52.5 -24q35 0 53.5 23.5t18.5 66.5l80 -3q4 -75 -39 -121.5t-113 -46.5z" glyph-name="obreve" horiz-adv-x="589" unicode="ŏ"/><glyph d="M390 -13q-148 0 -242 100.5t-94 257.5t94 257.5t242 100.5q147 0 241 -100.5t94 -257.5t-94 -257.5t-241 -100.5zM390 90q97 0 151.5 71.5t54.5 183.5t-54.5 183.5t-151.5 71.5t-152 -71.5t-55 -183.5t55 -183.5t152 -71.5zM523 773h-103l99 191l95 -36zM347 773h-103 l96 187l98 -32z" glyph-name="Ohungarumlaut" horiz-adv-x="779" unicode="Ő"/><glyph d="M294 -13q-111 0 -180.5 70.5t-69.5 185.5t69.5 186t180.5 71q112 0 181 -71t69 -186t-69 -185.5t-181 -70.5zM294 89q57 0 92 41.5t35 112.5t-35 112.5t-92 41.5q-56 0 -91.5 -41.5t-35.5 -112.5t35.5 -112.5t91.5 -41.5zM428 569h-103l99 191l95 -36zM252 569h-103 l96 187l98 -32z" glyph-name="ohungarumlaut" horiz-adv-x="589" unicode="ő"/><glyph d="M455 -13q-193 0 -297 98.5t-104 259.5t104 259.5t297 98.5q97 0 182 -13h332l-13 -104h-300v-184h264v-104h-264v-194h318l-13 -104h-324q-85 -13 -182 -13zM183 345q0 -116 67 -186t197 -70q36 0 81 3v506q-45 3 -81 3q-130 0 -197 -70t-67 -186z" glyph-name="OE" horiz-adv-x="1021" unicode="Œ"/><glyph d="M276 -13q-98 0 -165 71.5t-67 184.5t67 184.5t165 71.5q62 0 109.5 -30.5t73.5 -84.5q30 55 84 85t123 30q102 0 162.5 -60.5t60.5 -163.5q0 -33 -7 -64h-333q9 -56 48 -91.5t104 -35.5q71 0 128 39l36 -86q-76 -50 -177 -50q-160 0 -228 118q-25 -56 -73 -87t-111 -31z M296 86q58 0 94 42.5t36 114.5t-36 114t-94 42q-57 0 -93 -42t-36 -114t36 -114.5t93 -42.5zM551 296h230q-4 47 -33.5 77.5t-78.5 30.5q-46 0 -77 -27.5t-41 -80.5z" glyph-name="oe" horiz-adv-x="935" unicode="œ"/><glyph d="M280 246q-36 0 -77 3v-249h-123v687q116 16 200 16q157 0 232.5 -61t75.5 -167q0 -154 -148 -206l45 -74q33 -54 64 -80t72 -26q22 0 40 6l10 -97q-37 -11 -75 -11q-78 0 -129 40t-91 114l-59 106zM204 755l-41 77l225 129l49 -90zM203 349q43 -4 85 -4q172 0 172 130 q0 129 -172 129q-42 0 -85 -4v-251z" glyph-name="Racute" horiz-adv-x="712" unicode="Ŕ"/><glyph d="M67 0v480l109 12v-106q38 114 147 114q27 0 58 -9v-119q-33 10 -59 10q-63 0 -97.5 -43.5t-34.5 -116.5v-222h-123zM129 551l-41 77l225 129l49 -90z" glyph-name="racute" horiz-adv-x="419" unicode="ŕ"/><glyph d="M280 246q-36 0 -77 3v-249h-123v687q116 16 200 16q157 0 232.5 -61t75.5 -167q0 -154 -148 -206l45 -74q33 -54 64 -80t72 -26q22 0 40 6l10 -97q-37 -11 -75 -11q-78 0 -129 40t-91 114l-59 106zM291 -276q49 29 54 69l-53 16q-6 19 -6 37q0 32 19.5 50.5t46.5 18.5 q32 0 52 -23.5t20 -66.5q0 -95 -102 -150zM203 349q43 -4 85 -4q172 0 172 130q0 129 -172 129q-42 0 -85 -4v-251z" glyph-name="uni0156" horiz-adv-x="712" unicode="Ŗ"/><glyph d="M67 0v480l109 12v-106q38 114 147 114q27 0 58 -9v-119q-33 10 -59 10q-63 0 -97.5 -43.5t-34.5 -116.5v-222h-123zM64 -276q49 29 54 69l-53 16q-6 19 -6 37q0 32 19.5 50.5t46.5 18.5q32 0 52 -23.5t20 -66.5q0 -95 -102 -150z" glyph-name="uni0157" horiz-adv-x="419" unicode="ŗ"/><glyph d="M280 246q-36 0 -77 3v-249h-123v687q116 16 200 16q157 0 232.5 -61t75.5 -167q0 -154 -148 -206l45 -74q33 -54 64 -80t72 -26q22 0 40 6l10 -97q-37 -11 -75 -11q-78 0 -129 40t-91 114l-59 106zM309 754l-166 146l53 60l113 -88l112 88l53 -60zM203 349q43 -4 85 -4 q172 0 172 130q0 129 -172 129q-42 0 -85 -4v-251z" glyph-name="Rcaron" horiz-adv-x="712" unicode="Ř"/><glyph d="M67 0v480l109 12v-106q38 114 147 114q27 0 58 -9v-119q-33 10 -59 10q-63 0 -97.5 -43.5t-34.5 -116.5v-222h-123zM234 550l-166 146l53 60l113 -88l112 88l53 -60z" glyph-name="rcaron" horiz-adv-x="419" unicode="ř"/><glyph d="M314 -13q-159 0 -272 111l59 74q97 -89 206 -89q65 0 101.5 28.5t36.5 80.5q0 46 -28 68.5t-80 35.5l-72 18q-172 43 -172 192q0 98 69 147.5t179 49.5q137 0 234 -69l-53 -81q-80 54 -176 54q-129 0 -129 -92q0 -39 24.5 -59.5t78.5 -33.5l72 -18q177 -43 177 -197 q0 -107 -73 -163.5t-182 -56.5zM242 755l-41 77l225 129l49 -90z" glyph-name="Sacute" horiz-adv-x="626" unicode="Ś"/><glyph d="M247 -13q-122 0 -215 79l56 77q72 -58 158 -58q39 0 60.5 15t21.5 42q0 24 -17.5 37t-52.5 20l-41 9q-72 16 -108 48.5t-36 91.5q0 75 54.5 113t140.5 38q108 0 187 -50l-51 -80q-61 35 -134 35q-77 0 -77 -47q0 -40 66 -54l51 -11q63 -13 100.5 -44.5t37.5 -97.5 q0 -79 -56.5 -121t-144.5 -42zM157 551l-41 77l225 129l49 -90z" glyph-name="sacute" horiz-adv-x="498" unicode="ś"/><glyph d="M314 -13q-159 0 -272 111l59 74q97 -89 206 -89q65 0 101.5 28.5t36.5 80.5q0 46 -28 68.5t-80 35.5l-72 18q-172 43 -172 192q0 98 69 147.5t179 49.5q137 0 234 -69l-53 -81q-80 54 -176 54q-129 0 -129 -92q0 -39 24.5 -59.5t78.5 -33.5l72 -18q177 -43 177 -197 q0 -107 -73 -163.5t-182 -56.5zM234 760l-53 60l166 146l165 -146l-53 -60l-112 84z" glyph-name="Scircumflex" horiz-adv-x="626" unicode="Ŝ"/><glyph d="M247 -13q-122 0 -215 79l56 77q72 -58 158 -58q39 0 60.5 15t21.5 42q0 24 -17.5 37t-52.5 20l-41 9q-72 16 -108 48.5t-36 91.5q0 75 54.5 113t140.5 38q108 0 187 -50l-51 -80q-61 35 -134 35q-77 0 -77 -47q0 -40 66 -54l51 -11q63 -13 100.5 -44.5t37.5 -97.5 q0 -79 -56.5 -121t-144.5 -42zM149 556l-53 60l166 146l165 -146l-53 -60l-112 84z" glyph-name="scircumflex" horiz-adv-x="498" unicode="ŝ"/><glyph d="M301 -233q-42 0 -84 16l16 58q32 -10 58 -10q25 0 43 9.5t18 29.5q0 41 -91 38l24 80q-141 10 -243 110l59 74q97 -89 206 -89q65 0 101.5 28.5t36.5 80.5q0 46 -28 68.5t-80 35.5l-72 18q-172 43 -172 192q0 98 69 147.5t179 49.5q137 0 234 -69l-53 -81q-80 54 -176 54 q-129 0 -129 -92q0 -39 24.5 -59.5t78.5 -33.5l72 -18q177 -43 177 -197q0 -101 -65 -157t-165 -62l-10 -36q44 -3 72.5 -23.5t28.5 -61.5q0 -44 -34.5 -72t-94.5 -28z" glyph-name="Scedilla" horiz-adv-x="626" unicode="Ş"/><glyph d="M230 -233q-42 0 -84 16l16 58q32 -10 58 -10q25 0 43 9.5t18 29.5q0 41 -91 38l24 81q-103 10 -182 77l56 77q72 -58 158 -58q39 0 60.5 15t21.5 42q0 24 -17.5 37t-52.5 20l-41 9q-72 16 -108 48.5t-36 91.5q0 75 54.5 113t140.5 38q108 0 187 -50l-51 -80 q-61 35 -134 35q-77 0 -77 -47q0 -40 66 -54l51 -11q63 -13 100.5 -44.5t37.5 -97.5q0 -74 -50 -115.5t-130 -46.5l-10 -36q44 -3 72.5 -23.5t28.5 -61.5q0 -44 -34.5 -72t-94.5 -28z" glyph-name="scedilla" horiz-adv-x="498" unicode="ş"/><glyph d="M314 -13q-159 0 -272 111l59 74q97 -89 206 -89q65 0 101.5 28.5t36.5 80.5q0 46 -28 68.5t-80 35.5l-72 18q-172 43 -172 192q0 98 69 147.5t179 49.5q137 0 234 -69l-53 -81q-80 54 -176 54q-129 0 -129 -92q0 -39 24.5 -59.5t78.5 -33.5l72 -18q177 -43 177 -197 q0 -107 -73 -163.5t-182 -56.5zM347 754l-166 146l53 60l113 -88l112 88l53 -60z" glyph-name="Scaron" horiz-adv-x="626" unicode="Š"/><glyph d="M247 -13q-122 0 -215 79l56 77q72 -58 158 -58q39 0 60.5 15t21.5 42q0 24 -17.5 37t-52.5 20l-41 9q-72 16 -108 48.5t-36 91.5q0 75 54.5 113t140.5 38q108 0 187 -50l-51 -80q-61 35 -134 35q-77 0 -77 -47q0 -40 66 -54l51 -11q63 -13 100.5 -44.5t37.5 -97.5 q0 -79 -56.5 -121t-144.5 -42zM262 550l-166 146l53 60l113 -88l112 88l53 -60z" glyph-name="scaron" horiz-adv-x="498" unicode="š"/><glyph d="M267 0v586h-222v104h578l-13 -104h-215v-586h-36l-13 -48q44 -3 72.5 -23.5t28.5 -61.5q0 -44 -34.5 -72t-94.5 -28q-42 0 -84 16l16 58q32 -10 58 -10q25 0 43 9.5t18 29.5q0 41 -91 38l27 92h-38z" glyph-name="uni0162" horiz-adv-x="659" unicode="Ţ"/><glyph d="M288 -13q-30 0 -55 6l-12 -41q44 -3 72.5 -23.5t28.5 -61.5q0 -44 -34.5 -72t-94.5 -28q-42 0 -84 16l16 58q32 -10 58 -10q25 0 43 9.5t18 29.5q0 41 -91 38l31 105q-68 40 -68 148v226h-81v99h81v111l123 23v-134h132l-12 -99h-120v-196q0 -102 79 -102q25 0 55 12 l26 -92q-51 -22 -111 -22z" glyph-name="uni0163" horiz-adv-x="431" unicode="ţ"/><glyph d="M267 0v586h-222v104h578l-13 -104h-215v-586h-128zM334 754l-166 146l53 60l113 -88l112 88l53 -60z" glyph-name="Tcaron" horiz-adv-x="659" unicode="Ť"/><glyph d="M288 -13q-78 0 -125 41.5t-47 132.5v226h-81v99h81v111l123 23v-134h132l-12 -99h-120v-196q0 -102 79 -102q25 0 55 12l26 -92q-51 -22 -111 -22zM301 611q49 29 54 69l-53 16q-6 20 -6 37q0 31 19.5 49.5t46.5 18.5q32 0 52 -23t20 -66q0 -95 -102 -150z" glyph-name="tcaron" horiz-adv-x="431" unicode="ť"/><glyph d="M267 0v261h-162v99h162v226h-222v104h578l-13 -104h-215v-226h166l-12 -99h-154v-261h-128z" glyph-name="Tbar" horiz-adv-x="659" unicode="Ŧ"/><glyph d="M287 -11q-78 0 -124.5 42t-46.5 133v61h-81v97h81v67h-82v97h82v111l123 23v-134h131l-12 -97h-119v-67h132l-12 -97h-120v-31q0 -103 78 -103q26 0 56 13l25 -92q-52 -23 -111 -23z" glyph-name="tbar" horiz-adv-x="430" unicode="ŧ"/><glyph d="M350 -13q-127 0 -203 70.5t-76 196.5v427l129 19v-438q0 -76 39.5 -122t110.5 -46t111 46t40 122v419l128 19v-446q0 -126 -75.5 -196.5t-203.5 -70.5zM421 790q-33 0 -69.5 26t-52.5 26q-34 0 -42 -48l-77 7q14 133 107 133q34 0 70 -26.5t53 -26.5q34 0 42 49l76 -8 q-13 -132 -107 -132z" glyph-name="Utilde" horiz-adv-x="701" unicode="Ũ"/><glyph d="M246 -13q-83 0 -135 49t-52 145v299l123 12v-286q0 -57 25.5 -87t73.5 -30q108 0 108 145v246l123 12v-492h-99l-7 79q-48 -92 -160 -92zM353 586q-33 0 -69.5 26t-52.5 26q-34 0 -42 -48l-77 7q14 133 107 133q34 0 70 -26.5t53 -26.5q34 0 42 49l76 -8 q-13 -132 -107 -132z" glyph-name="utilde" horiz-adv-x="579" unicode="ũ"/><glyph d="M350 -13q-127 0 -203 70.5t-76 196.5v427l129 19v-438q0 -76 39.5 -122t110.5 -46t111 46t40 122v419l128 19v-446q0 -126 -75.5 -196.5t-203.5 -70.5zM206 797v93h295l-13 -93h-282z" glyph-name="Umacron" horiz-adv-x="701" unicode="Ū"/><glyph d="M246 -13q-83 0 -135 49t-52 145v299l123 12v-286q0 -57 25.5 -87t73.5 -30q108 0 108 145v246l123 12v-492h-99l-7 79q-48 -92 -160 -92zM138 593v93h295l-13 -93h-282z" glyph-name="umacron" horiz-adv-x="579" unicode="ū"/><glyph d="M350 -13q-127 0 -203 70.5t-76 196.5v427l129 19v-438q0 -76 39.5 -122t110.5 -46t111 46t40 122v419l128 19v-446q0 -126 -75.5 -196.5t-203.5 -70.5zM354 766q-70 0 -112.5 46.5t-38.5 121.5l80 3q0 -42 18.5 -66t52.5 -24q35 0 53.5 23.5t18.5 66.5l80 -3 q4 -75 -39 -121.5t-113 -46.5z" glyph-name="Ubreve" horiz-adv-x="701" unicode="Ŭ"/><glyph d="M246 -13q-83 0 -135 49t-52 145v299l123 12v-286q0 -57 25.5 -87t73.5 -30q108 0 108 145v246l123 12v-492h-99l-7 79q-48 -92 -160 -92zM286 562q-70 0 -112.5 46.5t-38.5 121.5l80 3q0 -42 18.5 -66t52.5 -24q35 0 53.5 23.5t18.5 66.5l80 -3q4 -75 -39 -121.5 t-113 -46.5z" glyph-name="ubreve" horiz-adv-x="579" unicode="ŭ"/><glyph d="M350 -13q-127 0 -203 70.5t-76 196.5v427l129 19v-438q0 -76 39.5 -122t110.5 -46t111 46t40 122v419l128 19v-446q0 -126 -75.5 -196.5t-203.5 -70.5zM354 750q-48 0 -80.5 30.5t-32.5 76.5t32.5 76.5t80.5 30.5t80 -30.5t32 -76.5t-32 -76.5t-80 -30.5zM354 808 q21 0 34.5 13.5t13.5 35.5t-13.5 35.5t-34.5 13.5t-35 -13.5t-14 -35.5t14 -35.5t35 -13.5z" glyph-name="Uring" horiz-adv-x="701" unicode="Ů"/><glyph d="M246 -13q-83 0 -135 49t-52 145v299l123 12v-286q0 -57 25.5 -87t73.5 -30q108 0 108 145v246l123 12v-492h-99l-7 79q-48 -92 -160 -92zM286 546q-48 0 -80.5 30.5t-32.5 76.5t32.5 76.5t80.5 30.5t80 -30.5t32 -76.5t-32 -76.5t-80 -30.5zM286 604q21 0 34.5 13.5 t13.5 35.5t-13.5 35.5t-34.5 13.5t-35 -13.5t-14 -35.5t14 -35.5t35 -13.5z" glyph-name="uring" horiz-adv-x="579" unicode="ů"/><glyph d="M350 -13q-127 0 -203 70.5t-76 196.5v427l129 19v-438q0 -76 39.5 -122t110.5 -46t111 46t40 122v419l128 19v-446q0 -126 -75.5 -196.5t-203.5 -70.5zM487 773h-103l99 191l95 -36zM311 773h-103l96 187l98 -32z" glyph-name="Uhungarumlaut" horiz-adv-x="701" unicode="Ű"/><glyph d="M246 -13q-83 0 -135 49t-52 145v299l123 12v-286q0 -57 25.5 -87t73.5 -30q108 0 108 145v246l123 12v-492h-99l-7 79q-48 -92 -160 -92zM419 569h-103l99 191l95 -36zM243 569h-103l96 187l98 -32z" glyph-name="uhungarumlaut" horiz-adv-x="579" unicode="ű"/><glyph d="M392 -238q-55 0 -91 29t-36 80q0 73 83 116q-126 1 -201.5 71.5t-75.5 195.5v427l129 19v-438q0 -76 39.5 -122t110.5 -46t111 46t40 122v419l128 19v-446q0 -99 -47.5 -164.5t-131.5 -89.5q-87 -46 -87 -106q0 -24 14.5 -37.5t38.5 -13.5q18 0 35 7l19 -72 q-42 -16 -78 -16z" glyph-name="Uogonek" horiz-adv-x="701" unicode="Ų"/><glyph d="M246 -13q-83 0 -135 49t-52 145v299l123 12v-286q0 -57 25.5 -87t73.5 -30q108 0 108 145v246l123 12v-492q-87 -46 -87 -106q0 -24 14.5 -37.5t38.5 -13.5q18 0 35 7l19 -72q-42 -16 -78 -16q-55 0 -91 29t-36 80q0 86 111 129h-25l-7 79q-48 -92 -160 -92z" glyph-name="uogonek" horiz-adv-x="579" unicode="ų"/><glyph d="M254 0l-211 682l116 18l153 -495l158 485h104l159 -486l153 496l115 -18l-209 -682h-104l-165 503l-166 -503h-103zM410 760l-53 60l166 146l165 -146l-53 -60l-112 84z" glyph-name="Wcircumflex" horiz-adv-x="1044" unicode="Ŵ"/><glyph d="M186 0l-154 478l113 17l104 -331l94 322h129l94 -322l104 331l114 -17l-155 -478h-111l-110 346l-110 -346h-112zM295 556l-53 60l166 146l165 -146l-53 -60l-112 84z" glyph-name="wcircumflex" horiz-adv-x="816" unicode="ŵ"/><glyph d="M297 0v281l-264 400l133 18l195 -303l195 303l133 -18l-263 -400v-281h-129zM248 760l-53 60l166 146l165 -146l-53 -60l-112 84z" glyph-name="Ycircumflex" horiz-adv-x="723" unicode="Ŷ"/><glyph d="M255 -238q-111 0 -190 62l41 86q70 -49 140 -49q73 0 108 32t35 103v55q-49 -64 -143 -64q-83 0 -135 49t-52 145v299l123 12v-286q0 -57 25.5 -87t73.5 -30q108 0 108 145v246l123 12v-496q0 -105 -71.5 -169.5t-185.5 -64.5zM178 556l-53 60l166 146l165 -146l-53 -60 l-112 84z" glyph-name="ycircumflex" horiz-adv-x="579" unicode="ŷ"/><glyph d="M297 0v281l-264 400l133 18l195 -303l195 303l133 -18l-263 -400v-281h-129zM261 786q-29 0 -47 19t-18 46q0 28 18 47t47 19t47.5 -19t18.5 -47q0 -27 -18.5 -46t-47.5 -19zM460 786q-29 0 -47.5 19t-18.5 46q0 28 18.5 47t47.5 19t47 -19t18 -47q0 -27 -18 -46t-47 -19 z" glyph-name="Ydieresis" horiz-adv-x="723" unicode="Ÿ"/><glyph d="M51 0v99l368 487h-359v104h508v-99l-368 -487h386l-12 -104h-523zM210 755l-41 77l225 129l49 -90z" glyph-name="Zacute" horiz-adv-x="634" unicode="Ź"/><glyph d="M40 0v99l250 288h-239v99h377v-99l-249 -288h266l-12 -99h-393zM135 551l-41 77l225 129l49 -90z" glyph-name="zacute" horiz-adv-x="482" unicode="ź"/><glyph d="M51 0v99l368 487h-359v104h508v-99l-368 -487h386l-12 -104h-523zM315 780q-34 0 -55.5 22t-21.5 55t21.5 55t55.5 22t55.5 -22t21.5 -55t-21.5 -55t-55.5 -22z" glyph-name="Zdotaccent" horiz-adv-x="634" unicode="Ż"/><glyph d="M40 0v99l250 288h-239v99h377v-99l-249 -288h266l-12 -99h-393zM240 576q-34 0 -55.5 22t-21.5 55t21.5 55t55.5 22t55.5 -22t21.5 -55t-21.5 -55t-55.5 -22z" glyph-name="zdotaccent" horiz-adv-x="482" unicode="ż"/><glyph d="M51 0v99l368 487h-359v104h508v-99l-368 -487h386l-12 -104h-523zM315 754l-166 146l53 60l113 -88l112 88l53 -60z" glyph-name="Zcaron" horiz-adv-x="634" unicode="Ž"/><glyph d="M40 0v99l250 288h-239v99h377v-99l-249 -288h266l-12 -99h-393zM240 550l-166 146l53 60l113 -88l112 88l53 -60z" glyph-name="zcaron" horiz-adv-x="482" unicode="ž"/><glyph d="M358 -13q-143 0 -224.5 86.5t-81.5 225.5q0 48 11 87h491q-12 98 -72.5 157t-162.5 59q-109 0 -199 -62l-40 88q112 75 252 75q167 0 257.5 -98.5t90.5 -260.5q0 -165 -87.5 -261t-234.5 -96zM169 284q0 -85 51.5 -142t138.5 -57q79 0 130.5 52t63.5 147h-384z" glyph-name="uni018F" horiz-adv-x="735" unicode="Ə"/><glyph d="M206 524q16 114 82.5 171.5t174.5 57.5q62 0 116 -20l-45 -94q-32 13 -69 13q-119 0 -137 -134l-16 -115h194l-24 -99h-184l-74 -529h-123l74 529h-130l11 99h133z" glyph-name="florin" horiz-adv-x="620" unicode="ƒ"/><glyph d="M29 -205q50 92 50 216v679h100l340 -482v473l113 18v-699h-101l-339 482v-466q0 -146 -66 -264z" glyph-name="uni019D" horiz-adv-x="712" unicode="Ɲ"/><glyph d="M402 -11q-156 0 -252 98t-96 258t101.5 259t265.5 99q125 0 220 -55l-44 -93q-77 46 -166 46q-111 0 -180.5 -70.5t-69.5 -185.5t62.5 -184t164.5 -69q68 0 122 28v146h-171l12 99h281v-307q-114 -69 -250 -69zM403 754l-166 146l53 60l113 -88l112 88l53 -60z" glyph-name="Gcaron" horiz-adv-x="713" unicode="Ǧ"/><glyph d="M276 -237q-103 0 -209 49l41 93q83 -40 159 -40q79 0 120 42t41 121v52q-58 -82 -163 -82q-97 0 -159 69t-62 181t62 181t159 69q124 0 181 -112l5 100h100v-464q0 -122 -73.5 -190.5t-201.5 -68.5zM295 95q59 0 96 41.5t37 111.5q0 71 -37 112.5t-96 41.5t-95 -41.5 t-36 -112.5q0 -70 36 -111.5t95 -41.5zM309 550l-166 146l53 60l113 -88l112 88l53 -60z" glyph-name="gcaron" horiz-adv-x="618" unicode="ǧ"/><glyph d="M390 90q97 0 151.5 71.5t54.5 183.5t-54.5 183.5t-151.5 71.5t-152 -71.5t-55 -183.5t55 -183.5t152 -71.5zM429 -238q-55 0 -91 29t-36 80q0 73 83 116q-146 2 -238.5 102.5t-92.5 255.5q0 157 94 257.5t242 100.5q147 0 241 -100.5t94 -257.5q0 -129 -64.5 -221.5 t-173.5 -123.5q-87 -46 -87 -106q0 -24 14.5 -37.5t38.5 -13.5q18 0 35 7l19 -72q-42 -16 -78 -16z" glyph-name="uni01EA" horiz-adv-x="779" unicode="Ǫ"/><glyph d="M294 89q57 0 92 41.5t35 112.5t-35 112.5t-92 41.5q-56 0 -91.5 -41.5t-35.5 -112.5t35.5 -112.5t91.5 -41.5zM324 -238q-55 0 -91 29t-36 80q0 75 83 116q-106 5 -171 75t-65 181q0 115 69.5 186t180.5 71q112 0 181 -71t69 -186q0 -91 -43.5 -155t-118.5 -88 q-87 -46 -87 -106q0 -24 14.5 -37.5t38.5 -13.5q18 0 35 7l19 -72q-42 -16 -78 -16z" glyph-name="uni01EB" horiz-adv-x="589" unicode="ǫ"/><glyph d="M171 -9l-129 18l291 681h98l287 -681l-123 -18l-67 160h-291zM378 745q-48 0 -80.5 30.5t-32.5 76.5t32.5 76.5t80.5 30.5q38 0 66 -19l106 60l43 -81l-104 -52l1 -15q0 -46 -32 -76.5t-80 -30.5zM378 802q21 0 34.5 14t13.5 36t-13.5 35t-34.5 13q-22 0 -35 -13t-13 -35 t13 -36t35 -14zM278 249h210l-105 253z" glyph-name="Aringacute" horiz-adv-x="760" unicode="Ǻ"/><glyph d="M480 -13q-95 0 -121 71q-56 -71 -156 -71q-71 0 -117 38t-46 107q0 75 58 115t160 40q44 0 100 -9l1 17q1 51 -32 77t-87 26q-70 0 -129 -43l-52 85q75 59 190 59q105 0 166 -48t59 -142l-3 -162q-1 -52 43 -52q14 0 26 3v-103q-32 -8 -60 -8zM268 541q-48 0 -80.5 30.5 t-32.5 76.5t32.5 76.5t80.5 30.5q38 0 66 -19l106 60l43 -81l-104 -52l1 -15q0 -46 -32 -76.5t-80 -30.5zM268 598q21 0 34.5 14t13.5 36t-13.5 35t-34.5 13q-22 0 -35 -13t-13 -35t13 -36t35 -14zM165 142q0 -30 23 -46t55 -16q46 0 76.5 33.5t33.5 90.5q-39 9 -76 9 q-51 0 -81.5 -18t-30.5 -53z" glyph-name="aringacute" horiz-adv-x="575" unicode="ǻ"/><glyph d="M156 -9l-118 18l353 681h564l-13 -104h-271v-184h235v-104h-235v-194h288l-12 -104h-405v182h-286zM563 755l-41 77l225 129l49 -90zM307 281h235v310h-73z" glyph-name="AEacute" horiz-adv-x="1006" unicode="Ǽ"/><glyph d="M623 -13q-149 0 -220 106q-31 -51 -85 -78.5t-115 -27.5q-71 0 -117 38t-46 107q0 75 58 115t160 40q44 0 100 -9l1 17q1 51 -32 77t-87 26q-70 0 -129 -43l-52 85q75 59 190 59q127 0 180 -68q65 68 172 68q102 0 162.5 -60.5t60.5 -163.5q0 -39 -7 -64h-333 q9 -56 48.5 -91.5t104.5 -35.5q69 0 128 39l35 -86q-76 -50 -177 -50zM335 551l-41 77l225 129l49 -90zM165 142q0 -30 23 -46t55 -16q46 0 76.5 33.5t33.5 90.5q-39 9 -76 9q-51 0 -81.5 -18t-30.5 -53zM486 296h230q-4 47 -33 77.5t-79 30.5q-46 0 -77 -27.5t-41 -80.5z " glyph-name="aeacute" horiz-adv-x="870" unicode="ǽ"/><glyph d="M390 -13q-87 0 -161 38l-67 -96l-84 61l69 98q-93 101 -93 257q0 157 94 257.5t242 100.5q88 0 161 -39l67 96l84 -61l-69 -98q92 -102 92 -256q0 -157 -94 -257.5t-241 -100.5zM390 90q97 0 151.5 71.5t54.5 183.5q0 89 -35 153l-269 -383q44 -25 98 -25zM285 755 l-41 77l225 129l49 -90zM183 345q0 -91 36 -154l269 384q-42 25 -98 25q-97 0 -152 -71.5t-55 -183.5z" glyph-name="Oslashacute" horiz-adv-x="779" unicode="Ǿ"/><glyph d="M294 -13q-50 0 -94 15l-54 -76l-99 71l53 75q-56 68 -56 171q0 115 69.5 186t180.5 71q50 0 96 -16l53 75l100 -71l-53 -76q54 -68 54 -169q0 -115 -69 -185.5t-181 -70.5zM294 89q57 0 92 41.5t35 112.5t-35 112.5t-92 41.5q-56 0 -91.5 -41.5t-35.5 -112.5t35.5 -112.5 t91.5 -41.5zM190 551l-41 77l225 129l49 -90z" glyph-name="oslashacute" horiz-adv-x="589" unicode="ǿ"/><glyph d="M314 -13q-159 0 -272 111l59 74q97 -89 206 -89q65 0 101.5 28.5t36.5 80.5q0 46 -28 68.5t-80 35.5l-72 18q-172 43 -172 192q0 98 69 147.5t179 49.5q137 0 234 -69l-53 -81q-80 54 -176 54q-129 0 -129 -92q0 -39 24.5 -59.5t78.5 -33.5l72 -18q177 -43 177 -197 q0 -107 -73 -163.5t-182 -56.5zM251 -276q49 29 54 69l-53 16q-6 19 -6 37q0 32 19.5 50.5t46.5 18.5q32 0 52 -23.5t20 -66.5q0 -95 -102 -150z" glyph-name="uni0218" horiz-adv-x="626" unicode="Ș"/><glyph d="M247 -13q-122 0 -215 79l56 77q72 -58 158 -58q39 0 60.5 15t21.5 42q0 24 -17.5 37t-52.5 20l-41 9q-72 16 -108 48.5t-36 91.5q0 75 54.5 113t140.5 38q108 0 187 -50l-51 -80q-61 35 -134 35q-77 0 -77 -47q0 -40 66 -54l51 -11q63 -13 100.5 -44.5t37.5 -97.5 q0 -79 -56.5 -121t-144.5 -42zM180 -276q49 29 54 69l-53 16q-6 19 -6 37q0 32 19.5 50.5t46.5 18.5q32 0 52 -23.5t20 -66.5q0 -95 -102 -150z" glyph-name="uni0219" horiz-adv-x="498" unicode="ș"/><glyph d="M267 0v586h-222v104h578l-13 -104h-215v-586h-128zM268 -276q49 29 54 69l-53 16q-6 19 -6 37q0 32 19.5 50.5t46.5 18.5q32 0 52 -23.5t20 -66.5q0 -95 -102 -150z" glyph-name="uni021A" horiz-adv-x="659" unicode="Ț"/><glyph d="M288 -13q-78 0 -125 41.5t-47 132.5v226h-81v99h81v111l123 23v-134h132l-12 -99h-120v-196q0 -102 79 -102q25 0 55 12l26 -92q-51 -22 -111 -22zM143 -276q49 29 54 69l-53 16q-6 19 -6 37q0 32 19.5 50.5t46.5 18.5q32 0 52 -23.5t20 -66.5q0 -95 -102 -150z" glyph-name="uni021B" horiz-adv-x="431" unicode="ț"/><glyph d="M297 0v281l-264 400l133 18l195 -303l195 303l133 -18l-263 -400v-281h-129zM213 797v93h295l-13 -93h-282z" glyph-name="uni0232" horiz-adv-x="723" unicode="Ȳ"/><glyph d="M255 -238q-111 0 -190 62l41 86q70 -49 140 -49q73 0 108 32t35 103v55q-49 -64 -143 -64q-83 0 -135 49t-52 145v299l123 12v-286q0 -57 25.5 -87t73.5 -30q108 0 108 145v246l123 12v-496q0 -105 -71.5 -169.5t-185.5 -64.5zM143 593v93h295l-13 -93h-282z" glyph-name="uni0233" horiz-adv-x="579" unicode="ȳ"/><glyph d="M15 -206q51 99 51 217v466l123 18v-479q0 -150 -68 -268z" glyph-name="uni0237" horiz-adv-x="255" unicode="ȷ"/><glyph d="M247 499q121 0 191.5 -71t70.5 -185q0 -117 -66 -186.5t-174 -69.5q-102 0 -163 60.5t-61 163.5q0 35 8 64h332q-9 56 -48 91.5t-104 35.5q-69 0 -128 -39l-35 86q76 50 177 50zM154 190q4 -47 33 -77.5t79 -30.5q96 0 117 108h-229z" glyph-name="uni0259" horiz-adv-x="553" unicode="ə"/><glyph d="M16 -206q51 96 51 217v467l109 16v-87q52 93 162 93q82 0 132 -51.5t50 -148.5v-300h-123v275q0 122 -94 122q-52 0 -82.5 -39.5t-30.5 -110.5v-231q0 -149 -67 -268z" glyph-name="uni0272" horiz-adv-x="579" unicode="ɲ"/><glyph d="M153 556l-53 60l166 146l165 -146l-53 -60l-112 84z" glyph-name="circumflex" horiz-adv-x="531" unicode="ˆ"/><glyph d="M266 550l-166 146l53 60l113 -88l112 88l53 -60z" glyph-name="caron" horiz-adv-x="531" unicode="ˇ"/><glyph d="M252 562q-70 0 -112.5 46.5t-38.5 121.5l80 3q0 -42 18.5 -66t52.5 -24q35 0 53.5 23.5t18.5 66.5l80 -3q4 -75 -39 -121.5t-113 -46.5z" glyph-name="breve" horiz-adv-x="505" unicode="˘"/><glyph d="M177 576q-34 0 -55.5 22t-21.5 55t21.5 55t55.5 22t55.5 -22t21.5 -55t-21.5 -55t-55.5 -22z" glyph-name="dotaccent" horiz-adv-x="354" unicode="˙"/><glyph d="M213 546q-48 0 -80.5 30.5t-32.5 76.5t32.5 76.5t80.5 30.5t80 -30.5t32 -76.5t-32 -76.5t-80 -30.5zM213 604q21 0 34.5 13.5t13.5 35.5t-13.5 35.5t-34.5 13.5t-35 -13.5t-14 -35.5t14 -35.5t35 -13.5z" glyph-name="ring" horiz-adv-x="425" unicode="˚"/><glyph d="M227 -238q-55 0 -91 29t-36 80q0 95 140 139l45 -10q-87 -46 -87 -106q0 -24 14.5 -37.5t38.5 -13.5q18 0 35 7l19 -72q-42 -16 -78 -16z" glyph-name="ogonek" horiz-adv-x="405" unicode="˛"/><glyph d="M341 586q-33 0 -69.5 26t-52.5 26q-34 0 -42 -48l-77 7q14 133 107 133q34 0 70 -26.5t53 -26.5q34 0 42 49l76 -8q-13 -132 -107 -132z" glyph-name="tilde" horiz-adv-x="548" unicode="˜"/><glyph d="M380 569h-103l99 191l95 -36zM204 569h-103l96 187l98 -32z" glyph-name="hungarumlaut" horiz-adv-x="572" unicode="˝"/><glyph d="M333 551l-233 116l49 90l225 -129z" glyph-name="gravecomb" horiz-adv-x="0" unicode="̀"/><glyph d="M141 551l-41 77l225 129l49 -90z" glyph-name="acutecomb" horiz-adv-x="0" unicode="́"/><glyph d="M153 556l-53 60l166 146l165 -146l-53 -60l-112 84z" glyph-name="uni0302" horiz-adv-x="0" unicode="̂"/><glyph d="M341 586q-33 0 -69.5 26t-52.5 26q-34 0 -42 -48l-77 7q14 133 107 133q34 0 70 -26.5t53 -26.5q34 0 42 49l76 -8q-13 -132 -107 -132z" glyph-name="tildecomb" horiz-adv-x="0" unicode="̃"/><glyph d="M100 593v93h295l-13 -93h-282z" glyph-name="uni0304" horiz-adv-x="0" unicode="̄"/><glyph d="M252 562q-70 0 -112.5 46.5t-38.5 121.5l80 3q0 -42 18.5 -66t52.5 -24q35 0 53.5 23.5t18.5 66.5l80 -3q4 -75 -39 -121.5t-113 -46.5z" glyph-name="uni0306" horiz-adv-x="0" unicode="̆"/><glyph d="M177 576q-34 0 -55.5 22t-21.5 55t21.5 55t55.5 22t55.5 -22t21.5 -55t-21.5 -55t-55.5 -22z" glyph-name="uni0307" horiz-adv-x="0" unicode="̇"/><glyph d="M165 582q-29 0 -47 19t-18 46q0 28 18 47t47 19t47.5 -19t18.5 -47q0 -27 -18.5 -46t-47.5 -19zM364 582q-29 0 -47.5 19t-18.5 46q0 28 18.5 47t47.5 19t47 -19t18 -47q0 -27 -18 -46t-47 -19z" glyph-name="uni0308" horiz-adv-x="0" unicode="̈"/><glyph d="M213 546q-48 0 -80.5 30.5t-32.5 76.5t32.5 76.5t80.5 30.5t80 -30.5t32 -76.5t-32 -76.5t-80 -30.5zM213 604q21 0 34.5 13.5t13.5 35.5t-13.5 35.5t-34.5 13.5t-35 -13.5t-14 -35.5t14 -35.5t35 -13.5z" glyph-name="uni030A" horiz-adv-x="0" unicode="̊"/><glyph d="M380 569h-103l99 191l95 -36zM204 569h-103l96 187l98 -32z" glyph-name="uni030B" horiz-adv-x="0" unicode="̋"/><glyph d="M266 550l-166 146l53 60l113 -88l112 88l53 -60z" glyph-name="uni030C" horiz-adv-x="0" unicode="̌"/><glyph d="M232 752q-48 -30 -53 -68l52 -17q7 -18 7 -37q0 -32 -19.5 -50t-47.5 -18q-31 0 -51 23t-20 66q0 95 102 150z" glyph-name="uni0312" horiz-adv-x="0" unicode="̒"/><glyph d="M165 -228q-29 0 -47 19t-18 47t18 46.5t47 18.5t47.5 -18.5t18.5 -46.5t-18.5 -47t-47.5 -19z" glyph-name="dotbelowcomb" horiz-adv-x="0" unicode="̣"/><glyph d="M105 -276q49 29 54 69l-53 16q-6 19 -6 37q0 32 19.5 50.5t46.5 18.5q32 0 52 -23.5t20 -66.5q0 -95 -102 -150z" glyph-name="uni0326" horiz-adv-x="0" unicode="̦"/><glyph d="M184 -233q-42 0 -84 16l16 58q32 -10 58 -10q25 0 43 9.5t18 29.5q0 41 -91 38l33 112l51 -10l-16 -58q44 -3 72.5 -23.5t28.5 -61.5q0 -44 -34.5 -72t-94.5 -28z" glyph-name="uni0327" horiz-adv-x="0" unicode="̧"/><glyph d="M227 -238q-55 0 -91 29t-36 80q0 95 140 139l45 -10q-87 -46 -87 -106q0 -24 14.5 -37.5t38.5 -13.5q18 0 35 7l19 -72q-42 -16 -78 -16z" glyph-name="uni0328" horiz-adv-x="0" unicode="̨"/><glyph d="M100 239v92h365v-92h-365z" glyph-name="uni0335" horiz-adv-x="0" unicode="̵"/><glyph d="M100 495v92h709l-13 -92h-696z" glyph-name="uni0336" horiz-adv-x="0" unicode="̶"/><glyph d="M243 296v17l-102 -48l-41 89l168 79l-2 -17l143 67l41 -89z" glyph-name="uni0337" horiz-adv-x="0" unicode="̷"/><glyph d="M199 -95l-99 71l86 121l102 -67zM515 351l-99 73l80 114l100 -71z" glyph-name="uni0338" horiz-adv-x="0" unicode="̸"/><glyph d="M254 0l-211 682l116 18l153 -495l158 485h104l159 -486l153 496l115 -18l-209 -682h-104l-165 503l-166 -503h-103zM590 755l-233 116l49 90l225 -129z" glyph-name="Wgrave" horiz-adv-x="1044" unicode="Ẁ"/><glyph d="M186 0l-154 478l113 17l104 -331l94 322h129l94 -322l104 331l114 -17l-155 -478h-111l-110 346l-110 -346h-112zM476 551l-233 116l49 90l225 -129z" glyph-name="wgrave" horiz-adv-x="816" unicode="ẁ"/><glyph d="M254 0l-211 682l116 18l153 -495l158 485h104l159 -486l153 496l115 -18l-209 -682h-104l-165 503l-166 -503h-103zM418 755l-41 77l225 129l49 -90z" glyph-name="Wacute" horiz-adv-x="1044" unicode="Ẃ"/><glyph d="M186 0l-154 478l113 17l104 -331l94 322h129l94 -322l104 331l114 -17l-155 -478h-111l-110 346l-110 -346h-112zM303 551l-41 77l225 129l49 -90z" glyph-name="wacute" horiz-adv-x="816" unicode="ẃ"/><glyph d="M254 0l-211 682l116 18l153 -495l158 485h104l159 -486l153 496l115 -18l-209 -682h-104l-165 503l-166 -503h-103zM423 786q-29 0 -47 19t-18 46q0 28 18 47t47 19t47.5 -19t18.5 -47q0 -27 -18.5 -46t-47.5 -19zM622 786q-29 0 -47.5 19t-18.5 46q0 28 18.5 47t47.5 19 t47 -19t18 -47q0 -27 -18 -46t-47 -19z" glyph-name="Wdieresis" horiz-adv-x="1044" unicode="Ẅ"/><glyph d="M186 0l-154 478l113 17l104 -331l94 322h129l94 -322l104 331l114 -17l-155 -478h-111l-110 346l-110 -346h-112zM308 582q-29 0 -47 19t-18 46q0 28 18 47t47 19t47.5 -19t18.5 -47q0 -27 -18.5 -46t-47.5 -19zM507 582q-29 0 -47.5 19t-18.5 46q0 28 18.5 47t47.5 19 t47 -19t18 -47q0 -27 -18 -46t-47 -19z" glyph-name="wdieresis" horiz-adv-x="816" unicode="ẅ"/><glyph d="M433 -13q-94 0 -173 34l34 96q63 -25 117 -25q68 0 105.5 34.5t37.5 88.5t-38.5 81.5t-109.5 27.5q-43 0 -94 -8v65l186 205h-290v-586h-129v690h553v-98l-167 -180q100 -6 159.5 -56.5t59.5 -144.5q0 -100 -68.5 -162t-182.5 -62z" glyph-name="uni1E9E" horiz-adv-x="733" unicode="ẞ"/><glyph d="M171 -9l-129 18l291 681h98l287 -681l-123 -18l-67 160h-291zM378 -228q-29 0 -47 19t-18 47t18 46.5t47 18.5t47.5 -18.5t18.5 -46.5t-18.5 -47t-47.5 -19zM278 249h210l-105 253z" glyph-name="uni1EA0" horiz-adv-x="760" unicode="Ạ"/><glyph d="M480 -13q-95 0 -121 71q-56 -71 -156 -71q-71 0 -117 38t-46 107q0 75 58 115t160 40q44 0 100 -9l1 17q1 51 -32 77t-87 26q-70 0 -129 -43l-52 85q75 59 190 59q105 0 166 -48t59 -142l-3 -162q-1 -52 43 -52q14 0 26 3v-103q-32 -8 -60 -8zM288 -228q-29 0 -47 19 t-18 47t18 46.5t47 18.5t47.5 -18.5t18.5 -46.5t-18.5 -47t-47.5 -19zM165 142q0 -30 23 -46t55 -16q46 0 76.5 33.5t33.5 90.5q-39 9 -76 9q-51 0 -81.5 -18t-30.5 -53z" glyph-name="uni1EA1" horiz-adv-x="575" unicode="ạ"/><glyph d="M80 0v690h441l-13 -104h-300v-184h264v-104h-264v-194h318l-13 -104h-433zM279 -228q-29 0 -47 19t-18 47t18 46.5t47 18.5t47.5 -18.5t18.5 -46.5t-18.5 -47t-47.5 -19z" glyph-name="uni1EB8" horiz-adv-x="573" unicode="Ẹ"/><glyph d="M306 -13q-121 0 -191.5 71t-70.5 185q0 117 66 186.5t174 69.5q102 0 163 -60.5t61 -163.5q0 -35 -8 -64h-332q9 -56 48 -91.5t104 -35.5q69 0 128 39l35 -86q-76 -50 -177 -50zM276 -228q-29 0 -47 19t-18 47t18 46.5t47 18.5t47.5 -18.5t18.5 -46.5t-18.5 -47 t-47.5 -19zM170 296h229q-4 47 -33 77.5t-79 30.5q-96 0 -117 -108z" glyph-name="uni1EB9" horiz-adv-x="553" unicode="ẹ"/><glyph d="M80 0v690h441l-13 -104h-300v-184h264v-104h-264v-194h318l-13 -104h-433zM373 790q-33 0 -69.5 26t-52.5 26q-34 0 -42 -48l-77 7q14 133 107 133q34 0 70 -26.5t53 -26.5q34 0 42 49l76 -8q-13 -132 -107 -132z" glyph-name="uni1EBC" horiz-adv-x="573" unicode="Ẽ"/><glyph d="M306 -13q-121 0 -191.5 71t-70.5 185q0 117 66 186.5t174 69.5q102 0 163 -60.5t61 -163.5q0 -35 -8 -64h-332q9 -56 48 -91.5t104 -35.5q69 0 128 39l35 -86q-76 -50 -177 -50zM352 586q-33 0 -69.5 26t-52.5 26q-34 0 -42 -48l-77 7q14 133 107 133q34 0 70 -26.5 t53 -26.5q34 0 42 49l76 -8q-13 -132 -107 -132zM170 296h229q-4 47 -33 77.5t-79 30.5q-96 0 -117 -108z" glyph-name="uni1EBD" horiz-adv-x="553" unicode="ẽ"/><glyph d="M80 0v681l123 18v-699h-123zM140 -228q-29 0 -47 19t-18 47t18 46.5t47 18.5t47.5 -18.5t18.5 -46.5t-18.5 -47t-47.5 -19z" glyph-name="uni1ECA" horiz-adv-x="282" unicode="Ị"/><glyph d="M66 0v477l123 18v-495h-123zM128 576q-34 0 -55.5 22t-21.5 55t21.5 55t55.5 22t55.5 -22t21.5 -55t-21.5 -55t-55.5 -22zM125 -228q-29 0 -47 19t-18 47t18 46.5t47 18.5t47.5 -18.5t18.5 -46.5t-18.5 -47t-47.5 -19z" glyph-name="uni1ECB" horiz-adv-x="256" unicode="ị"/><glyph d="M390 -13q-148 0 -242 100.5t-94 257.5t94 257.5t242 100.5q147 0 241 -100.5t94 -257.5t-94 -257.5t-241 -100.5zM390 90q97 0 151.5 71.5t54.5 183.5t-54.5 183.5t-151.5 71.5t-152 -71.5t-55 -183.5t55 -183.5t152 -71.5zM389 -228q-29 0 -47 19t-18 47t18 46.5 t47 18.5t47.5 -18.5t18.5 -46.5t-18.5 -47t-47.5 -19z" glyph-name="uni1ECC" horiz-adv-x="779" unicode="Ọ"/><glyph d="M294 -13q-111 0 -180.5 70.5t-69.5 185.5t69.5 186t180.5 71q112 0 181 -71t69 -186t-69 -185.5t-181 -70.5zM294 89q57 0 92 41.5t35 112.5t-35 112.5t-92 41.5q-56 0 -91.5 -41.5t-35.5 -112.5t35.5 -112.5t91.5 -41.5zM294 -228q-29 0 -47 19t-18 47t18 46.5t47 18.5 t47.5 -18.5t18.5 -46.5t-18.5 -47t-47.5 -19z" glyph-name="uni1ECD" horiz-adv-x="589" unicode="ọ"/><glyph d="M350 -13q-127 0 -203 70.5t-76 196.5v427l129 19v-438q0 -76 39.5 -122t110.5 -46t111 46t40 122v419l128 19v-446q0 -126 -75.5 -196.5t-203.5 -70.5zM350 -228q-29 0 -47 19t-18 47t18 46.5t47 18.5t47.5 -18.5t18.5 -46.5t-18.5 -47t-47.5 -19z" glyph-name="uni1EE4" horiz-adv-x="701" unicode="Ụ"/><glyph d="M246 -13q-83 0 -135 49t-52 145v299l123 12v-286q0 -57 25.5 -87t73.5 -30q108 0 108 145v246l123 12v-492h-99l-7 79q-48 -92 -160 -92zM271 -228q-29 0 -47 19t-18 47t18 46.5t47 18.5t47.5 -18.5t18.5 -46.5t-18.5 -47t-47.5 -19z" glyph-name="uni1EE5" horiz-adv-x="579" unicode="ụ"/><glyph d="M297 0v281l-264 400l133 18l195 -303l195 303l133 -18l-263 -400v-281h-129zM428 755l-233 116l49 90l225 -129z" glyph-name="Ygrave" horiz-adv-x="723" unicode="Ỳ"/><glyph d="M255 -238q-111 0 -190 62l41 86q70 -49 140 -49q73 0 108 32t35 103v55q-49 -64 -143 -64q-83 0 -135 49t-52 145v299l123 12v-286q0 -57 25.5 -87t73.5 -30q108 0 108 145v246l123 12v-496q0 -105 -71.5 -169.5t-185.5 -64.5zM359 551l-233 116l49 90l225 -129z" glyph-name="ygrave" horiz-adv-x="579" unicode="ỳ"/><glyph d="M297 0v281l-264 400l133 18l195 -303l195 303l133 -18l-263 -400v-281h-129zM427 790q-33 0 -69.5 26t-52.5 26q-34 0 -42 -48l-77 7q14 133 107 133q34 0 70 -26.5t53 -26.5q34 0 42 49l76 -8q-13 -132 -107 -132z" glyph-name="uni1EF8" horiz-adv-x="723" unicode="Ỹ"/><glyph d="M255 -238q-111 0 -190 62l41 86q70 -49 140 -49q73 0 108 32t35 103v55q-49 -64 -143 -64q-83 0 -135 49t-52 145v299l123 12v-286q0 -57 25.5 -87t73.5 -30q108 0 108 145v246l123 12v-496q0 -105 -71.5 -169.5t-185.5 -64.5zM358 586q-33 0 -69.5 26t-52.5 26 q-34 0 -42 -48l-77 7q14 133 107 133q34 0 70 -26.5t53 -26.5q34 0 42 49l76 -8q-13 -132 -107 -132z" glyph-name="uni1EF9" horiz-adv-x="579" unicode="ỹ"/><glyph d="M66 230v100h455l-12 -100h-443z" glyph-name="endash" horiz-adv-x="587" unicode="–"/><glyph d="M66 230v100h565l-12 -100h-553z" glyph-name="emdash" horiz-adv-x="697" unicode="—"/><glyph d="M197 651q-55 -30 -60 -76l59 -19q7 -24 7 -40q0 -35 -21 -54.5t-52 -19.5q-34 0 -55.5 25.5t-21.5 72.5q0 53 30 95t81 69z" glyph-name="quoteleft" horiz-adv-x="256" unicode="‘"/><glyph d="M59 494q55 30 60 76l-59 19q-7 25 -7 40q0 35 21 54.5t52 19.5q34 0 55.5 -25.5t21.5 -72.5q0 -53 -30 -95t-81 -69z" glyph-name="quoteright" horiz-adv-x="256" unicode="’"/><glyph d="M59 -71q55 30 60 76l-59 19q-7 25 -7 40q0 35 21 54.5t52 19.5q34 0 55.5 -25.5t21.5 -72.5q0 -53 -30 -95t-81 -69z" glyph-name="quotesinglbase" horiz-adv-x="256" unicode="‚"/><glyph d="M383 651q-55 -30 -60 -76l59 -19q7 -24 7 -40q0 -35 -21 -54.5t-52 -19.5q-34 0 -55.5 25.5t-21.5 72.5q0 53 30 95t81 69zM197 651q-55 -30 -60 -76l59 -19q7 -24 7 -40q0 -35 -21 -54.5t-52 -19.5q-34 0 -55.5 25.5t-21.5 72.5q0 53 30 95t81 69z" glyph-name="quotedblleft" horiz-adv-x="442" unicode="“"/><glyph d="M59 494q55 30 60 76l-59 19q-7 25 -7 40q0 35 21 54.5t52 19.5q34 0 55.5 -25.5t21.5 -72.5q0 -53 -30 -95t-81 -69zM245 494q55 30 60 76l-59 19q-7 25 -7 40q0 35 21 54.5t52 19.5q34 0 55.5 -25.5t21.5 -72.5q0 -53 -30 -95t-81 -69z" glyph-name="quotedblright" horiz-adv-x="442" unicode="”"/><glyph d="M59 -72q55 30 60 76l-59 19q-7 24 -7 40q0 35 21 54.5t52 19.5q34 0 55.5 -25.5t21.5 -72.5q0 -53 -30 -95t-81 -69zM245 -72q55 30 60 76l-59 19q-7 25 -7 40q0 35 21 54.5t52 19.5q34 0 55.5 -25.5t21.5 -72.5q0 -53 -30 -95t-81 -69z" glyph-name="quotedblbase" horiz-adv-x="442" unicode="„"/><glyph d="M250 0v393h-173v99h173v198h123v-198h170v-99h-170v-393h-123z" glyph-name="dagger" horiz-adv-x="620" unicode="†"/><glyph d="M249 0v168h-172v99h172v156h-172v99h172v168h123v-168h171v-99h-171v-156h171v-99h-171v-168h-123z" glyph-name="daggerdbl" horiz-adv-x="620" unicode="‡"/><glyph d="M310 241q-46 0 -75 30t-29 74q0 45 28.5 74.5t75.5 29.5t75.5 -29.5t28.5 -74.5q0 -44 -29 -74t-75 -30z" glyph-name="bullet" horiz-adv-x="620" unicode="•"/><glyph d="M134 -11q-35 0 -56.5 22t-21.5 56t21.5 56t56.5 22t56.5 -22t21.5 -56t-21.5 -56t-56.5 -22zM346 -11q-35 0 -56.5 22t-21.5 56t21.5 56t56.5 22t56.5 -22t21.5 -56t-21.5 -56t-56.5 -22zM558 -11q-35 0 -56.5 22t-21.5 56t21.5 56t56.5 22t56.5 -22t21.5 -56t-21.5 -56 t-56.5 -22z" glyph-name="ellipsis" horiz-adv-x="692" unicode="…"/><glyph d="M190 283q-82 0 -125 60t-43 150t43 150t125 60t125 -60t43 -150t-43 -150t-125 -60zM190 364q71 0 71 129t-71 129q-70 0 -70 -129t70 -129zM300 -13l-99 14l401 690l100 -14zM719 -10q-83 0 -125.5 60t-42.5 150t42.5 150t125.5 60t125.5 -60t42.5 -150t-42.5 -150 t-125.5 -60zM719 71q71 0 71 129t-71 129q-70 0 -70 -129t70 -129zM1148 -10q-82 0 -125 60t-43 150t43 150t125 60t125 -60t43 -150t-43 -150t-125 -60zM1148 71q71 0 71 129t-71 129q-70 0 -70 -129t70 -129z" glyph-name="perthousand" horiz-adv-x="1338" unicode="‰"/><glyph d="M210 69l-163 191l163 191l73 -62l-110 -129l110 -129z" glyph-name="guilsinglleft" horiz-adv-x="335" unicode="‹"/><glyph d="M125 69l-73 62l110 129l-110 129l73 62l163 -191z" glyph-name="guilsinglright" horiz-adv-x="335" unicode="›"/><glyph d="M-56 -13l-99 14l401 690l100 -14z" glyph-name="fraction" horiz-adv-x="190" unicode="⁄"/><glyph d="M190 408q-82 0 -125 60t-43 150t43 150t125 60t125 -60t43 -150t-43 -150t-125 -60zM190 489q71 0 71 129t-71 129q-70 0 -70 -129t70 -129z" glyph-name="uni2070" horiz-adv-x="380" unicode="⁰"/><glyph d="M27 504l-5 5l97 325l97 -13l-70 -235h63v78l97 15v-93h52l-9 -82h-43v-77h-97v77h-182z" glyph-name="uni2074" horiz-adv-x="380" unicode="⁴"/><glyph d="M172 408q-82 0 -143 41l41 65q51 -30 97 -30q37 0 59.5 17t22.5 43q0 29 -27.5 41.5t-65.5 12.5q-47 0 -92 -18l-4 3l28 235h237l-8 -73h-163l-9 -74q19 3 40 3q72 0 114.5 -31t42.5 -93q0 -64 -44.5 -103t-125.5 -39z" glyph-name="uni2075" horiz-adv-x="380" unicode="⁵"/><glyph d="M201 408q-80 0 -124.5 52.5t-44.5 140.5q0 99 51.5 163t148.5 64q65 0 112 -29l-36 -68q-34 17 -74 17q-107 0 -111 -120q33 45 96 45q56 0 94 -34.5t38 -91.5q0 -60 -41.5 -99.5t-108.5 -39.5zM197 481q28 0 47 17.5t19 43.5q0 25 -18.5 42t-46.5 17t-47.5 -17 t-19.5 -42q0 -26 19 -43.5t47 -17.5z" glyph-name="uni2076" horiz-adv-x="380" unicode="⁶"/><glyph d="M175 410l-102 16l142 311h-185v81h319l7 -6z" glyph-name="uni2077" horiz-adv-x="380" unicode="⁷"/><glyph d="M190 408q-68 0 -113 32t-45 88q0 69 74 97q-59 30 -59 91q0 48 41 80t102 32q62 0 103 -32t41 -80q0 -60 -60 -91q74 -28 74 -97q0 -56 -45 -88t-113 -32zM190 482q31 0 50.5 14t19.5 37q0 24 -19 38t-51 14q-31 0 -50.5 -14t-19.5 -38q0 -23 20 -37t50 -14zM190 656 q26 0 43.5 14.5t17.5 35.5q0 20 -17.5 34t-43.5 14t-43.5 -14t-17.5 -34q0 -21 17.5 -35.5t43.5 -14.5z" glyph-name="uni2078" horiz-adv-x="380" unicode="⁸"/><glyph d="M179 828q80 0 124.5 -52.5t44.5 -140.5q0 -99 -51.5 -163t-148.5 -64q-65 0 -112 29l36 68q34 -17 74 -17q107 0 111 120q-33 -45 -96 -45q-56 0 -94 34.5t-38 91.5q0 60 41.5 99.5t108.5 39.5zM183 755q-28 0 -47 -17.5t-19 -43.5q0 -25 18.5 -42t46.5 -17t47.5 17 t19.5 42q0 26 -19 43.5t-47 17.5z" glyph-name="uni2079" horiz-adv-x="380" unicode="⁹"/><glyph d="M190 -215q-82 0 -125 60t-43 150t43 150t125 60t125 -60t43 -150t-43 -150t-125 -60zM190 -134q71 0 71 129t-71 129q-70 0 -70 -129t70 -129z" glyph-name="uni2080" horiz-adv-x="380" unicode="₀"/><glyph d="M67 46l-37 72l151 77h79v-318h91l-9 -82h-279v82h99v217z" glyph-name="uni2081" horiz-adv-x="380" unicode="₁"/><glyph d="M45 -205v82l117 78q81 55 81 103q0 32 -24.5 50t-62.5 18q-45 0 -90 -30l-42 66q71 45 148 45q75 0 122 -35t47 -99q0 -48 -27 -85.5t-80 -74.5l-52 -36h160l-7 -82h-290z" glyph-name="uni2082" horiz-adv-x="380" unicode="₂"/><glyph d="M173 -214q-81 0 -150 41l45 71q48 -29 97 -29q77 0 77 48q0 42 -72 42h-66l9 79h60q30 0 45.5 11.5t15.5 29.5q0 42 -71 42q-48 0 -88 -24l-40 72q65 36 137 36q73 0 119 -30t46 -84q0 -35 -19.5 -59t-51.5 -33q78 -17 78 -92q0 -57 -45 -89t-126 -32z" glyph-name="uni2083" horiz-adv-x="380" unicode="₃"/><glyph d="M27 -128l-5 5l97 325l97 -13l-70 -235h63v78l97 15v-93h52l-9 -82h-43v-77h-97v77h-182z" glyph-name="uni2084" horiz-adv-x="380" unicode="₄"/><glyph d="M172 -215q-82 0 -143 41l41 65q51 -30 97 -30q37 0 59.5 17t22.5 43q0 29 -27.5 41.5t-65.5 12.5q-47 0 -92 -18l-4 3l28 235h237l-8 -73h-163l-9 -74q19 3 40 3q72 0 114.5 -31t42.5 -93q0 -64 -44.5 -103t-125.5 -39z" glyph-name="uni2085" horiz-adv-x="380" unicode="₅"/><glyph d="M201 -215q-80 0 -124.5 52.5t-44.5 140.5q0 99 51.5 163t148.5 64q65 0 112 -29l-36 -68q-34 17 -74 17q-107 0 -111 -120q33 45 96 45q56 0 94 -34.5t38 -91.5q0 -60 -41.5 -99.5t-108.5 -39.5zM197 -142q28 0 47 17.5t19 43.5q0 25 -18.5 42t-46.5 17t-47.5 -17 t-19.5 -42q0 -26 19 -43.5t47 -17.5z" glyph-name="uni2086" horiz-adv-x="380" unicode="₆"/><glyph d="M175 -213l-102 16l142 311h-185v81h319l7 -6z" glyph-name="uni2087" horiz-adv-x="380" unicode="₇"/><glyph d="M190 -215q-68 0 -113 32t-45 88q0 69 74 97q-59 30 -59 91q0 48 41 80t102 32q62 0 103 -32t41 -80q0 -60 -60 -91q74 -28 74 -97q0 -56 -45 -88t-113 -32zM190 -141q31 0 50.5 14t19.5 37q0 24 -19 38t-51 14q-31 0 -50.5 -14t-19.5 -38q0 -23 20 -37t50 -14zM190 33 q26 0 43.5 14.5t17.5 35.5q0 20 -17.5 34t-43.5 14t-43.5 -14t-17.5 -34q0 -21 17.5 -35.5t43.5 -14.5z" glyph-name="uni2088" horiz-adv-x="380" unicode="₈"/><glyph d="M179 205q80 0 124.5 -52.5t44.5 -140.5q0 -99 -51.5 -163t-148.5 -64q-65 0 -112 29l36 68q34 -17 74 -17q107 0 111 120q-33 -45 -96 -45q-56 0 -94 34.5t-38 91.5q0 60 41.5 99.5t108.5 39.5zM183 132q-28 0 -47 -17.5t-19 -43.5q0 -25 18.5 -42t46.5 -17t47.5 17 t19.5 42q0 26 -19 43.5t-47 17.5z" glyph-name="uni2089" horiz-adv-x="380" unicode="₉"/><glyph d="M438 -13q-112 0 -193 63t-112 171h-93v93h77l-1 31l1 31h-77v93h93q31 108 112 171t193 63q79 0 145 -29l-32 -96q-44 23 -100 23q-66 0 -113.5 -35.5t-72.5 -96.5h245l-26 -93h-241l-1 -31l1 -31h223l-26 -93h-175q25 -61 72.5 -96.5t113.5 -35.5q56 0 100 23l32 -96 q-66 -29 -145 -29z" glyph-name="Euro" horiz-adv-x="620" unicode="€"/><glyph d="M38 110v93h86v64h-86v93h86v330h219q110 0 177.5 -56t67.5 -156q0 -99 -67.5 -155t-177.5 -56h-97v-64h180l-12 -93h-168v-110h-122v110h-86zM246 365h98q55 0 88.5 31t33.5 82q0 52 -33.5 83t-88.5 31h-98v-227z" glyph-name="uni20BD" horiz-adv-x="620" unicode="₽"/><glyph d="M79 0v690h100l340 -482v473l113 18v-699h-101l-339 482v-482h-113zM757 158v92h287v-92h-287zM900 328q-84 0 -139.5 53t-55.5 135q0 81 55.5 134t139.5 53t140 -53t56 -134t-56 -134.5t-140 -53.5zM901 411q46 0 75 30.5t29 74.5t-29 74t-75 30t-75 -30t-29 -74 t29 -74.5t75 -30.5z" glyph-name="uni2116" horiz-adv-x="1143" unicode="№"/><glyph d="M146 369v245h-110v76h319l-14 -76h-103v-245h-92zM387 369l59 321h66l96 -213l95 213h66l59 -321h-81l-30 172l-76 -172h-66l-77 171l-29 -171h-82z" glyph-name="trademark" horiz-adv-x="873" unicode="™"/><glyph d="M385 -16q-158 0 -251.5 105.5t-93.5 255.5t93.5 255.5t251.5 105.5q79 0 146 -28.5t109.5 -75t66 -104t23.5 -116.5v-53h-603v-138q85 -161 258 -161q59 0 118.5 18.5t100.5 46.5l24 -33q-40 -30 -103.5 -54t-139.5 -24zM127 375h516v124q-85 161 -258 161t-258 -161 v-124z" glyph-name="estimated" horiz-adv-x="766" unicode="℮"/><glyph d="M193 290v299l-95 -48l-37 72l150 77h80v-400h-98zM296 -13l-99 14l401 690l100 -14zM720 -10q-68 0 -113 32t-45 88q0 69 74 97q-59 30 -59 91q0 48 41 80t102 32q62 0 103 -32t41 -80q0 -60 -60 -91q74 -28 74 -97q0 -56 -45 -88t-113 -32zM720 64q31 0 50.5 14t19.5 37 q0 24 -19 38t-51 14q-31 0 -50.5 -14t-19.5 -38q0 -23 20 -37t50 -14zM720 238q26 0 43.5 14.5t17.5 35.5q0 20 -17.5 34t-43.5 14t-43.5 -14t-17.5 -34q0 -21 17.5 -35.5t43.5 -14.5z" glyph-name="oneeighth" horiz-adv-x="910" unicode="⅛"/><glyph d="M173 281q-81 0 -150 41l45 71q48 -29 97 -29q77 0 77 48q0 42 -72 42h-66l9 79h60q30 0 45.5 11.5t15.5 29.5q0 42 -71 42q-48 0 -88 -24l-40 72q65 36 137 36q73 0 119 -30t46 -84q0 -35 -19.5 -59t-51.5 -33q78 -17 78 -92q0 -57 -45 -89t-126 -32zM304 -13l-99 14 l401 690l100 -14zM728 -10q-68 0 -113 32t-45 88q0 69 74 97q-59 30 -59 91q0 48 41 80t102 32q62 0 103 -32t41 -80q0 -60 -60 -91q74 -28 74 -97q0 -56 -45 -88t-113 -32zM728 64q31 0 50.5 14t19.5 37q0 24 -19 38t-51 14q-31 0 -50.5 -14t-19.5 -38q0 -23 20 -37t50 -14 zM728 238q26 0 43.5 14.5t17.5 35.5q0 20 -17.5 34t-43.5 14t-43.5 -14t-17.5 -34q0 -21 17.5 -35.5t43.5 -14.5z" glyph-name="threeeighths" horiz-adv-x="918" unicode="⅜"/><glyph d="M172 280q-82 0 -143 41l41 65q51 -30 97 -30q37 0 59.5 17t22.5 43q0 29 -27.5 41.5t-65.5 12.5q-47 0 -92 -18l-4 3l28 235h237l-8 -73h-163l-9 -74q19 3 40 3q72 0 114.5 -31t42.5 -93q0 -64 -44.5 -103t-125.5 -39zM299 -13l-99 14l401 690l100 -14zM723 -10 q-68 0 -113 32t-45 88q0 69 74 97q-59 30 -59 91q0 48 41 80t102 32q62 0 103 -32t41 -80q0 -60 -60 -91q74 -28 74 -97q0 -56 -45 -88t-113 -32zM723 64q31 0 50.5 14t19.5 37q0 24 -19 38t-51 14q-31 0 -50.5 -14t-19.5 -38q0 -23 20 -37t50 -14zM723 238q26 0 43.5 14.5 t17.5 35.5q0 20 -17.5 34t-43.5 14t-43.5 -14t-17.5 -34q0 -21 17.5 -35.5t43.5 -14.5z" glyph-name="fiveeighths" horiz-adv-x="913" unicode="⅝"/><glyph d="M175 282l-102 16l142 311h-185v81h319l7 -6zM245 -13l-99 14l401 690l100 -14zM669 -10q-68 0 -113 32t-45 88q0 69 74 97q-59 30 -59 91q0 48 41 80t102 32q62 0 103 -32t41 -80q0 -60 -60 -91q74 -28 74 -97q0 -56 -45 -88t-113 -32zM669 64q31 0 50.5 14t19.5 37 q0 24 -19 38t-51 14q-31 0 -50.5 -14t-19.5 -38q0 -23 20 -37t50 -14zM669 238q26 0 43.5 14.5t17.5 35.5q0 20 -17.5 34t-43.5 14t-43.5 -14t-17.5 -34q0 -21 17.5 -35.5t43.5 -14.5z" glyph-name="seveneighths" horiz-adv-x="859" unicode="⅞"/><glyph d="M438 8l-341 342l341 341l74 -75l-213 -214h501v-105h-502l214 -215z" glyph-name="arrowleft" unicode="←"/><glyph d="M183 288l-74 74l342 341l341 -341l-74 -74l-215 214v-502h-104v503z" glyph-name="arrowup" unicode="↑"/><glyph d="M463 9l-74 74l214 215h-502v105h501l-213 214l74 75l341 -341z" glyph-name="arrowright" unicode="→"/><glyph d="M184 402l216 -215v503h104v-502l215 214l74 -74l-341 -341l-342 341z" glyph-name="arrowdown" unicode="↓"/><glyph d="M662 84l-355 355v-304l-105 1v482h483v-105h-304l355 -355z" glyph-name="uni2196" unicode="↖"/><glyph d="M240 71l-74 74l355 355h-304v105h483v-482l-105 -1v304z" glyph-name="uni2197" unicode="↗"/><glyph d="M239 618l355 -355v304l105 -1v-482h-483v105h304l-355 355z" glyph-name="uni2198" unicode="↘"/><glyph d="M661 618l74 -74l-355 -355h304v-105h-483v482l105 1v-304z" glyph-name="uni2199" unicode="↙"/><glyph d="M95 -56l-63 66l112 113q-71 93 -71 222q0 156 100.5 256t258.5 100q129 0 222 -68l113 113l63 -67l-111 -111q71 -95 71 -223q0 -156 -99.5 -256t-258.5 -100q-129 0 -223 69zM432 81q111 0 182 74t71 190q0 84 -39 150l-366 -366q63 -48 152 -48zM178 345q0 -86 40 -149 l365 366q-64 47 -151 47q-111 0 -182.5 -74t-71.5 -190z" glyph-name="emptyset" horiz-adv-x="862" unicode="∅"/><glyph d="M60 302v91h500v-91h-500z" glyph-name="minus" horiz-adv-x="620" unicode="−"/><glyph d="M548 163q-53 0 -94.5 24.5t-63.5 67.5q-23 -43 -64 -67.5t-94 -24.5q-79 0 -133 53t-54 134t54 134t133 53q53 0 94 -24.5t64 -67.5q22 43 63.5 67.5t94.5 24.5q79 0 133 -53t54 -134t-54 -134t-133 -53zM240 243q44 0 73 30.5t29 76.5t-29 76.5t-73 30.5 q-45 0 -73.5 -30.5t-28.5 -76.5t28.5 -76.5t73.5 -30.5zM540 243q44 0 73 30.5t29 76.5t-29 76.5t-73 30.5q-45 0 -74 -30.5t-29 -76.5t29 -76.5t74 -30.5z" glyph-name="infinity" horiz-adv-x="780" unicode="∞"/><glyph d="M421 127q-40 0 -78 22.5t-70 45t-58 22.5q-28 0 -44.5 -22t-18.5 -58h-92q0 90 36.5 139t101.5 49q39 0 76.5 -22.5t70 -45t59.5 -22.5q29 0 45.5 22t18.5 58h92q0 -90 -36.5 -139t-102.5 -49zM421 365q-40 0 -78 22.5t-70 45t-58 22.5q-28 0 -44.5 -22t-18.5 -58h-92 q0 90 36.5 139t101.5 49q39 0 76.5 -22.5t70 -45t59.5 -22.5q29 0 45.5 22t18.5 58h92q0 -90 -36.5 -139t-102.5 -49z" glyph-name="approxequal" horiz-adv-x="620" unicode="≈"/><glyph d="M144 98l40 93h-124v91h163l56 132h-219v91h258l40 93h109l-39 -93h132v-91h-171l-56 -132h227v-91h-266l-39 -93h-111z" glyph-name="notequal" horiz-adv-x="620" unicode="≠"/><glyph d="M560 223l-500 148v79l500 148v-85l-384 -103l384 -102v-85zM60 98v80h500v-80h-500z" glyph-name="lessequal" horiz-adv-x="620" unicode="≤"/><glyph d="M60 223v85l384 102l-384 103v85l500 -148v-79zM60 98v80h500v-80h-500z" glyph-name="greaterequal" horiz-adv-x="620" unicode="≥"/><glyph d="M105 0h690v690h-690v-690z" glyph-name="filledbox" unicode="■"/><glyph d="M105 0v690h690v-690h-690zM141 32h618v626h-618v-626z" glyph-name="H22073" unicode="□"/><glyph d="M450 -13q-154 0 -255.5 104.5t-101.5 253.5t101.5 253.5t255.5 104.5t255.5 -104.5t101.5 -253.5t-101.5 -253.5t-255.5 -104.5zM450 18q139 0 230.5 96t91.5 231t-91.5 231t-230.5 96t-230 -96t-91 -231t91 -231t230 -96z" glyph-name="circle" unicode="○"/><glyph d="M450 -13q154 0 255.5 104.5t101.5 253.5t-101.5 253.5t-255.5 104.5t-255.5 -104.5t-101.5 -253.5t101.5 -253.5t255.5 -104.5z" glyph-name="H18533" unicode="●"/><glyph d="M212 -13q-99 0 -175 42l41 94q60 -30 116 -30q129 0 129 139v449l129 18v-467q0 -120 -63 -182.5t-177 -62.5zM299 763l-42 78l195 111l48 -89z" glyph-name="glyph454" horiz-adv-x="525"/><glyph d="M66 0v477l123 18v-495h-123zM128 576q-34 0 -55.5 22t-21.5 55t21.5 55t55.5 22t55.5 -22t21.5 -55t-21.5 -55t-55.5 -22z" glyph-name="i.locl" horiz-adv-x="256"/><glyph d="M15 -206q51 99 51 217v466l123 18v-479q0 -150 -68 -268zM39 559l-42 78l195 111l48 -89z" glyph-name="glyph456" horiz-adv-x="255"/><glyph d="M66 0v477l123 18v-495h-123zM127 -228q-29 0 -47 19t-18 47t18 46.5t47 18.5t47.5 -18.5t18.5 -46.5t-18.5 -47t-47.5 -19z" glyph-name="glyph457" horiz-adv-x="256"/><glyph d="M66 0v477l123 18v-495q-87 -46 -87 -106q0 -24 14.5 -37.5t38.5 -13.5q18 0 35 7l19 -72q-42 -16 -78 -16q-55 0 -91 29t-36 80q0 86 111 129h-49z" glyph-name="glyph458" horiz-adv-x="256"/><glyph d="M450 0l-8 94q-56 -107 -176 -107q-97 0 -159.5 71t-62.5 185t62.5 185.5t159.5 71.5q120 0 177 -110l7 96h100v-486h-100zM296 87q58 0 94 42t36 114t-36 114t-94 42q-57 0 -93 -42t-36 -114t36 -114t93 -42z" glyph-name="a.ss01" horiz-adv-x="616"/><glyph d="M450 0l-8 94q-56 -107 -176 -107q-97 0 -159.5 71t-62.5 185t62.5 185.5t159.5 71.5q120 0 177 -110l7 96h100v-486h-100zM296 87q58 0 94 42t36 114t-36 114t-94 42q-57 0 -93 -42t-36 -114t36 -114t93 -42zM200 551l-41 77l225 129l49 -90z" glyph-name="aacute.ss01" horiz-adv-x="616"/><glyph d="M450 0l-8 94q-56 -107 -176 -107q-97 0 -159.5 71t-62.5 185t62.5 185.5t159.5 71.5q120 0 177 -110l7 96h100v-486h-100zM296 87q58 0 94 42t36 114t-36 114t-94 42q-57 0 -93 -42t-36 -114t36 -114t93 -42zM305 562q-70 0 -112.5 46.5t-38.5 121.5l80 3q0 -42 18.5 -66 t52.5 -24q35 0 53.5 23.5t18.5 66.5l80 -3q4 -75 -39 -121.5t-113 -46.5z" glyph-name="abreve.ss01" horiz-adv-x="616"/><glyph d="M450 0l-8 94q-56 -107 -176 -107q-97 0 -159.5 71t-62.5 185t62.5 185.5t159.5 71.5q120 0 177 -110l7 96h100v-486h-100zM296 87q58 0 94 42t36 114t-36 114t-94 42q-57 0 -93 -42t-36 -114t36 -114t93 -42zM192 556l-53 60l166 146l165 -146l-53 -60l-112 84z" glyph-name="acircumflex.ss01" horiz-adv-x="616"/><glyph d="M450 0l-8 94q-56 -107 -176 -107q-97 0 -159.5 71t-62.5 185t62.5 185.5t159.5 71.5q120 0 177 -110l7 96h100v-486h-100zM296 87q58 0 94 42t36 114t-36 114t-94 42q-57 0 -93 -42t-36 -114t36 -114t93 -42zM205 582q-29 0 -47 19t-18 46q0 28 18 47t47 19t47.5 -19 t18.5 -47q0 -27 -18.5 -46t-47.5 -19zM404 582q-29 0 -47.5 19t-18.5 46q0 28 18.5 47t47.5 19t47 -19t18 -47q0 -27 -18 -46t-47 -19z" glyph-name="adieresis.ss01" horiz-adv-x="616"/><glyph d="M450 0l-8 94q-56 -107 -176 -107q-97 0 -159.5 71t-62.5 185t62.5 185.5t159.5 71.5q120 0 177 -110l7 96h100v-486h-100zM296 87q58 0 94 42t36 114t-36 114t-94 42q-57 0 -93 -42t-36 -114t36 -114t93 -42zM305 -228q-29 0 -47 19t-18 47t18 46.5t47 18.5t47.5 -18.5 t18.5 -46.5t-18.5 -47t-47.5 -19z" glyph-name="uni1EA1.ss01" horiz-adv-x="616"/><glyph d="M450 0l-8 94q-56 -107 -176 -107q-97 0 -159.5 71t-62.5 185t62.5 185.5t159.5 71.5q120 0 177 -110l7 96h100v-486h-100zM296 87q58 0 94 42t36 114t-36 114t-94 42q-57 0 -93 -42t-36 -114t36 -114t93 -42zM373 551l-233 116l49 90l225 -129z" glyph-name="agrave.ss01" horiz-adv-x="616"/><glyph d="M450 0l-8 94q-56 -107 -176 -107q-97 0 -159.5 71t-62.5 185t62.5 185.5t159.5 71.5q120 0 177 -110l7 96h100v-486h-100zM296 87q58 0 94 42t36 114t-36 114t-94 42q-57 0 -93 -42t-36 -114t36 -114t93 -42zM157 593v93h295l-13 -93h-282z" glyph-name="amacron.ss01" horiz-adv-x="616"/><glyph d="M450 0l-8 94q-56 -107 -176 -107q-97 0 -159.5 71t-62.5 185t62.5 185.5t159.5 71.5q120 0 177 -110l7 96h100v-486h-1q-87 -46 -87 -106q0 -24 14.5 -37.5t38.5 -13.5q18 0 35 7l19 -72q-42 -16 -78 -16q-55 0 -91 29t-36 80q0 86 111 129h-25zM296 87q58 0 94 42 t36 114t-36 114t-94 42q-57 0 -93 -42t-36 -114t36 -114t93 -42z" glyph-name="aogonek.ss01" horiz-adv-x="616"/><glyph d="M450 0l-8 94q-56 -107 -176 -107q-97 0 -159.5 71t-62.5 185t62.5 185.5t159.5 71.5q120 0 177 -110l7 96h100v-486h-100zM296 87q58 0 94 42t36 114t-36 114t-94 42q-57 0 -93 -42t-36 -114t36 -114t93 -42zM305 546q-48 0 -80.5 30.5t-32.5 76.5t32.5 76.5t80.5 30.5 t80 -30.5t32 -76.5t-32 -76.5t-80 -30.5zM305 604q21 0 34.5 13.5t13.5 35.5t-13.5 35.5t-34.5 13.5t-35 -13.5t-14 -35.5t14 -35.5t35 -13.5z" glyph-name="aring.ss01" horiz-adv-x="616"/><glyph d="M450 0l-8 94q-56 -107 -176 -107q-97 0 -159.5 71t-62.5 185t62.5 185.5t159.5 71.5q120 0 177 -110l7 96h100v-486h-100zM296 87q58 0 94 42t36 114t-36 114t-94 42q-57 0 -93 -42t-36 -114t36 -114t93 -42zM305 541q-48 0 -80.5 30.5t-32.5 76.5t32.5 76.5t80.5 30.5 q37 0 66 -19l106 60l43 -81l-104 -52l1 -15q0 -46 -32 -76.5t-80 -30.5zM305 598q21 0 34.5 14t13.5 36t-13.5 35t-34.5 13q-22 0 -35 -13t-13 -35t13 -36t35 -14z" glyph-name="aringacute.ss01" horiz-adv-x="616"/><glyph d="M450 0l-8 94q-56 -107 -176 -107q-97 0 -159.5 71t-62.5 185t62.5 185.5t159.5 71.5q120 0 177 -110l7 96h100v-486h-100zM296 87q58 0 94 42t36 114t-36 114t-94 42q-57 0 -93 -42t-36 -114t36 -114t93 -42zM372 586q-33 0 -69.5 26t-52.5 26q-34 0 -42 -48l-77 7 q14 133 107 133q34 0 70 -26.5t53 -26.5q34 0 42 49l76 -8q-13 -132 -107 -132z" glyph-name="atilde.ss01" horiz-adv-x="616"/><glyph d="M107 -238q-61 0 -119 22l42 102q37 -17 73 -17q42 0 67.5 23.5t45.5 66.5l34 72l-209 447l126 19l149 -334l149 334l127 -19l-197 -420l-47 -103q-19 -40 -35 -67t-44.5 -59.5t-69.5 -49.5t-92 -17z" glyph-name="y.ss02" horiz-adv-x="621"/><glyph d="M107 -238q-61 0 -119 22l42 102q37 -17 73 -17q42 0 67.5 23.5t45.5 66.5l34 72l-209 447l126 19l149 -334l149 334l127 -19l-197 -420l-47 -103q-19 -40 -35 -67t-44.5 -59.5t-69.5 -49.5t-92 -17zM207 551l-41 77l225 129l49 -90z" glyph-name="yacute.ss02" horiz-adv-x="621"/><glyph d="M107 -238q-61 0 -119 22l42 102q37 -17 73 -17q42 0 67.5 23.5t45.5 66.5l34 72l-209 447l126 19l149 -334l149 334l127 -19l-197 -420l-47 -103q-19 -40 -35 -67t-44.5 -59.5t-69.5 -49.5t-92 -17zM199 556l-53 60l166 146l165 -146l-53 -60l-112 84z" glyph-name="ycircumflex.ss02" horiz-adv-x="621"/><glyph d="M107 -238q-61 0 -119 22l42 102q37 -17 73 -17q42 0 67.5 23.5t45.5 66.5l34 72l-209 447l126 19l149 -334l149 334l127 -19l-197 -420l-47 -103q-19 -40 -35 -67t-44.5 -59.5t-69.5 -49.5t-92 -17zM212 582q-29 0 -47 19t-18 46q0 28 18 47t47 19t47.5 -19t18.5 -47 q0 -27 -18.5 -46t-47.5 -19zM411 582q-29 0 -47.5 19t-18.5 46q0 28 18.5 47t47.5 19t47 -19t18 -47q0 -27 -18 -46t-47 -19z" glyph-name="ydieresis.ss02" horiz-adv-x="621"/><glyph d="M107 -238q-61 0 -119 22l42 102q37 -17 73 -17q42 0 67.5 23.5t45.5 66.5l34 72l-209 447l126 19l149 -334l149 334l127 -19l-197 -420l-47 -103q-19 -40 -35 -67t-44.5 -59.5t-69.5 -49.5t-92 -17zM379 551l-233 116l49 90l225 -129z" glyph-name="ygrave.ss02" horiz-adv-x="621"/><glyph d="M107 -238q-61 0 -119 22l42 102q37 -17 73 -17q42 0 67.5 23.5t45.5 66.5l34 72l-209 447l126 19l149 -334l149 334l127 -19l-197 -420l-47 -103q-19 -40 -35 -67t-44.5 -59.5t-69.5 -49.5t-92 -17zM164 593v93h295l-13 -93h-282z" glyph-name="uni0233.ss02" horiz-adv-x="621"/><glyph d="M107 -238q-61 0 -119 22l42 102q37 -17 73 -17q42 0 67.5 23.5t45.5 66.5l34 72l-209 447l126 19l149 -334l149 334l127 -19l-197 -420l-47 -103q-19 -40 -35 -67t-44.5 -59.5t-69.5 -49.5t-92 -17zM378 586q-33 0 -69.5 26t-52.5 26q-34 0 -42 -48l-77 7q14 133 107 133 q34 0 70 -26.5t53 -26.5q34 0 42 49l76 -8q-13 -132 -107 -132z" glyph-name="uni1EF9.ss02" horiz-adv-x="621"/><glyph d="M307 -13q-118 0 -190.5 70t-72.5 186q0 103 59.5 171.5t158.5 82.5q-19 36 -19 82q0 78 57.5 119.5t152.5 41.5h194l61 9v-320q52 71 148 71q82 0 132 -51.5t50 -148.5v-300h-123v275q0 122 -94 122q-52 0 -82.5 -39.5t-30.5 -110.5v-247h-123v641h-132q-130 0 -130 -103 q0 -19 5 -39q73 -4 132 -38l-42 -91q-49 27 -96 27q-69 0 -110 -43.5t-41 -110.5t41 -110.5t110 -43.5q47 0 96 27l42 -91q-66 -38 -153 -38z" glyph-name="c_h.dlig" horiz-adv-x="1097"/><glyph d="M307 -13q-118 0 -190.5 70t-72.5 186q0 103 59.5 171.5t158.5 82.5q-19 36 -19 82q0 78 57.5 119.5t152.5 41.5h194l61 9v-452q179 13 182 181l123 18q2 -76 -27 -139t-88 -104l160 -244l-133 -18l-137 212q-38 -9 -80 -12v-191h-123v641h-132q-130 0 -130 -103 q0 -19 5 -39q73 -4 132 -38l-42 -91q-49 27 -96 27q-69 0 -110 -43.5t-41 -110.5t41 -110.5t110 -43.5q47 0 96 27l42 -91q-66 -38 -153 -38z" glyph-name="c_k.dlig" horiz-adv-x="1093"/><glyph d="M307 -13q-118 0 -190.5 70t-72.5 186t73 186.5t190 70.5q85 0 153 -39l-42 -91q-49 27 -96 27q-69 0 -110 -43.5t-41 -110.5t41 -110.5t110 -43.5q47 0 96 27l42 -91q-66 -38 -153 -38zM803 -13q-78 0 -125 41.5t-47 132.5v226h-81v99h81v111l123 23v-134h132l-12 -99 h-120v-196q0 -102 79 -102q25 0 55 12l26 -92q-51 -22 -111 -22z" glyph-name="c_t.dlig" horiz-adv-x="946"/><glyph d="M121 550q0 99 49 151t141 52q36 0 70 -8v-101q-23 7 -44 7q-93 0 -93 -107v-58h222v64q0 99 49 151t141 52q43 0 76 -10v-102q-21 10 -50 10q-93 0 -93 -107v-58h283l63 9v-479q0 -150 -68 -268l-106 46q51 99 51 217v376h-223v-387h-123v387h-222v-387h-123v387h-86v99 h86v64zM873 576q-34 0 -55.5 22t-21.5 55t21.5 55t55.5 22t55.5 -22t21.5 -55t-21.5 -55t-55.5 -22z" glyph-name="f_f_j.dlig" horiz-adv-x="1001"/><glyph d="M121 550q0 99 49 151t141 52q36 0 70 -8v-101q-23 7 -44 7q-93 0 -93 -107v-58h220v64q0 99 49 151t141 52q36 0 70 -8v-101q-23 7 -44 7q-93 0 -93 -107v-58h223v245l123 18v-452q179 13 182 181l123 18q2 -76 -27 -139t-88 -104l160 -244l-133 -18l-137 212 q-38 -9 -80 -12v-191h-123v387h-223v-387h-123v387h-220v-387h-123v387h-86v99h86v64z" glyph-name="f_f_k.dlig" horiz-adv-x="1317"/><glyph d="M121 550q0 99 49 151t141 52q43 0 76 -10v-102q-21 10 -50 10q-93 0 -93 -107v-58h283l62 9v-479q0 -150 -68 -268l-106 46q51 99 51 217v376h-222v-387h-123v387h-86v99h86v64zM527 576q-34 0 -55.5 22t-21.5 55t21.5 55t55.5 22t55.5 -22t21.5 -55t-21.5 -55t-55.5 -22 z" glyph-name="f_j.dlig" horiz-adv-x="656"/><glyph d="M121 550q0 99 49 151t141 52q36 0 70 -8v-101q-23 7 -44 7q-93 0 -93 -107v-58h222v245l123 18v-452q179 13 182 181l123 18q2 -76 -27 -139t-88 -104l160 -244l-133 -18l-137 212q-38 -9 -80 -12v-191h-123v387h-222v-387h-123v387h-86v99h86v64z" glyph-name="f_k.dlig" horiz-adv-x="973"/><glyph d="M247 -13q-122 0 -215 79l56 77q72 -58 158 -58q39 0 60.5 15t21.5 42q0 24 -17.5 37t-52.5 20l-41 9q-72 16 -108 48.5t-36 91.5q0 65 42 102.5t112 46.5q-19 36 -19 82q0 78 57.5 119.5t152.5 41.5h206l61 9v-320q52 71 148 71q82 0 132 -51.5t50 -148.5v-300h-123v275 q0 122 -94 122q-52 0 -82.5 -39.5t-30.5 -110.5v-247h-123v641h-144q-130 0 -130 -103q0 -18 5 -40q93 -5 162 -49l-51 -80q-61 35 -134 35q-77 0 -77 -47q0 -40 66 -54l51 -11q63 -13 100.5 -44.5t37.5 -97.5q0 -79 -56.5 -121t-144.5 -42z" glyph-name="s_b.dlig" horiz-adv-x="1060"/><glyph d="M247 -13q-122 0 -215 79l56 77q72 -58 158 -58q39 0 60.5 15t21.5 42q0 24 -17.5 37t-52.5 20l-41 9q-72 16 -108 48.5t-36 91.5q0 65 42 102.5t112 46.5q-19 36 -19 82q0 78 57.5 119.5t152.5 41.5h206l61 9v-330q59 81 160 81q97 0 159 -71t62 -186q0 -114 -62 -185 t-159 -71q-120 0 -177 107l-6 -94h-100v641h-144q-130 0 -130 -103q0 -18 5 -40q93 -5 162 -49l-51 -80q-61 35 -134 35q-77 0 -77 -47q0 -40 66 -54l51 -11q63 -13 100.5 -44.5t37.5 -97.5q0 -79 -56.5 -121t-144.5 -42zM815 87q57 0 92.5 42t35.5 114t-35.5 114t-92.5 42 q-58 0 -94 -42t-36 -114t36 -114t94 -42z" glyph-name="s_h.dlig" horiz-adv-x="1125"/><glyph d="M247 -13q-122 0 -215 79l56 77q72 -58 158 -58q39 0 60.5 15t21.5 42q0 24 -17.5 37t-52.5 20l-41 9q-72 16 -108 48.5t-36 91.5q0 65 42 102.5t112 46.5q-19 36 -19 82q0 78 57.5 119.5t152.5 41.5h206l61 9v-452q179 13 182 181l123 18q2 -76 -27 -139t-88 -104 l160 -244l-133 -18l-137 212q-38 -9 -80 -12v-191h-123v641h-144q-130 0 -130 -103q0 -18 5 -40q93 -5 162 -49l-51 -80q-61 35 -134 35q-77 0 -77 -47q0 -40 66 -54l51 -11q63 -13 100.5 -44.5t37.5 -97.5q0 -79 -56.5 -121t-144.5 -42z" glyph-name="s_k.dlig" horiz-adv-x="1069"/><glyph d="M247 -13q-122 0 -215 79l56 77q72 -58 158 -58q39 0 60.5 15t21.5 42q0 24 -17.5 37t-52.5 20l-41 9q-72 16 -108 48.5t-36 91.5q0 65 42 102.5t112 46.5q-19 36 -19 82q0 78 57.5 119.5t152.5 41.5h206l61 9v-582q0 -75 60 -75q20 0 37 7l25 -93q-41 -17 -91 -17 q-154 0 -154 180v472h-144q-130 0 -130 -103q0 -18 5 -40q93 -5 162 -49l-51 -80q-61 35 -134 35q-77 0 -77 -47q0 -40 66 -54l51 -11q63 -13 100.5 -44.5t37.5 -97.5q0 -79 -56.5 -121t-144.5 -42z" glyph-name="s_l.dlig" horiz-adv-x="838"/><glyph d="M247 -13q-122 0 -215 79l56 77q72 -58 158 -58q39 0 60.5 15t21.5 42q0 24 -17.5 37t-52.5 20l-41 9q-72 16 -108 48.5t-36 91.5q0 75 54.5 113t140.5 38q108 0 187 -50l-51 -80q-61 35 -134 35q-77 0 -77 -47q0 -40 66 -54l51 -11q63 -13 100.5 -44.5t37.5 -97.5 q0 -79 -56.5 -121t-144.5 -42zM768 -13q-78 0 -125 41.5t-47 132.5v226h-81v99h81v111l123 23v-134h132l-12 -99h-120v-196q0 -102 79 -102q25 0 55 12l26 -92q-51 -22 -111 -22z" glyph-name="s_t.dlig" horiz-adv-x="911"/><glyph d="M288 -13q-78 0 -125 41.5t-47 132.5v226h-81v99h81v111l123 23v-128h229v105l123 23v-134h132l-12 -99h-120v-196q0 -102 79 -102q25 0 55 12l26 -92q-51 -22 -111 -22q-78 0 -125 41.5t-47 132.5v226h-81v12h-27l-1 -12h-120v-196q0 -102 79 -102q25 0 55 12l26 -92 q-51 -22 -111 -22z" glyph-name="t_t.dlig" horiz-adv-x="557"/><glyph d="M311 289q-24 0 -40.5 16.5t-16.5 40.5q0 23 16.5 39.5t40.5 16.5q23 0 39.5 -16.5t16.5 -39.5q0 -24 -16.5 -40.5t-39.5 -16.5zM310 -11q-92 0 -155.5 50.5t-91 128.5t-27.5 177t27.5 177t91 128.5t155.5 50.5t155.5 -50.5t91 -128.5t27.5 -177t-27.5 -177t-91 -128.5 t-155.5 -50.5zM310 92q77 0 112.5 69.5t35.5 183.5t-35.5 183.5t-112.5 69.5t-112.5 -69.5t-35.5 -183.5t35.5 -183.5t112.5 -69.5z" glyph-name="zero.zero" horiz-adv-x="620"/><glyph d="M330 -11q-92 0 -155.5 50.5t-91 128.5t-27.5 177t27.5 177t91 128.5t155.5 50.5t155.5 -50.5t91 -128.5t27.5 -177t-27.5 -177t-91 -128.5t-155.5 -50.5zM330 92q77 0 112.5 69.5t35.5 183.5t-35.5 183.5t-112.5 69.5t-112.5 -69.5t-35.5 -183.5t35.5 -183.5t112.5 -69.5 z" glyph-name="zero.pnum" horiz-adv-x="661"/><glyph d="M89 458l-47 92l250 140h98v-690h-123v558z" glyph-name="one.pnum" horiz-adv-x="470"/><glyph d="M69 0v99l199 155q80 63 116 112t36 102q0 63 -45.5 98t-118.5 35q-81 0 -158 -52l-52 85q107 69 231 69q122 0 195.5 -56t73.5 -161q0 -84 -41.5 -152.5t-130.5 -133.5l-140 -101h318l-9 -99h-474z" glyph-name="two.pnum" horiz-adv-x="604"/><glyph d="M269 89q71 0 114 29.5t43 84.5q0 100 -148 100h-102l12 100h94q59 0 93.5 28t34.5 74q0 49 -40.5 72.5t-101.5 23.5q-79 0 -151 -41l-50 88q98 55 212 55t185.5 -47.5t71.5 -137.5q0 -64 -36 -106t-90 -58q57 -11 99.5 -48.5t42.5 -113.5q0 -97 -72 -151t-201 -54 q-132 0 -232 66l54 87q78 -51 168 -51z" glyph-name="three.pnum" horiz-adv-x="605"/><glyph d="M51 148l-7 7l171 544l114 -18l-138 -434h169v152l117 18v-170h110l-12 -99h-98v-148h-117v148h-309z" glyph-name="four.pnum" horiz-adv-x="631"/><glyph d="M266 89q69 0 111 34.5t42 92.5q0 59 -48 88t-119 29q-84 0 -157 -34l-7 5l42 386h387l-11 -99h-290l-19 -167q41 11 93 11q117 0 186.5 -53t69.5 -158q0 -108 -72 -172.5t-202 -64.5q-129 0 -229 66l55 87q83 -51 168 -51z" glyph-name="five.pnum" horiz-adv-x="595"/><glyph d="M327 -13q-133 0 -204 89.5t-71 238.5q0 172 84.5 280t239.5 108q105 0 179 -47l-46 -86q-61 32 -132 32q-53 0 -92.5 -21.5t-62 -58.5t-33.5 -82t-11 -98q53 94 172 94q94 0 157.5 -60t63.5 -158q0 -101 -67.5 -166t-176.5 -65zM319 87q57 0 93 34.5t36 89.5t-35.5 90 t-91.5 35t-93 -35t-37 -90q0 -54 36.5 -89t91.5 -35z" glyph-name="six.pnum" horiz-adv-x="622"/><glyph d="M254 -9l-126 18l260 581h-344v100h507l7 -6z" glyph-name="seven.pnum" horiz-adv-x="600"/><glyph d="M307 -13q-112 0 -185.5 53.5t-73.5 147.5q0 62 35 105t97 64q-50 24 -78.5 66t-28.5 94q0 81 66.5 133.5t167.5 52.5t167.5 -52.5t66.5 -133.5q0 -52 -28.5 -94t-78.5 -66q62 -21 97 -64t35 -105q0 -94 -73.5 -147.5t-185.5 -53.5zM307 87q60 0 97 29t37 78t-37 78.5 t-97 29.5t-97 -29.5t-37 -78.5t37 -78t97 -29zM307 404q52 0 85 28.5t33 70.5q0 43 -33 71.5t-85 28.5t-85 -28.5t-33 -71.5q0 -42 33 -70.5t85 -28.5z" glyph-name="eight.pnum" horiz-adv-x="614"/><glyph d="M295 703q133 0 204 -89.5t71 -238.5q0 -172 -84.5 -280t-239.5 -108q-105 0 -179 47l46 86q61 -32 132 -32q53 0 92.5 21.5t62 58.5t33.5 82t11 98q-53 -94 -172 -94q-94 0 -157.5 60t-63.5 158q0 101 67.5 166t176.5 65zM303 603q-57 0 -93 -34.5t-36 -89.5t35.5 -90 t91.5 -35t93 35t37 90q0 54 -36.5 89t-91.5 35z" glyph-name="nine.pnum" horiz-adv-x="622"/><glyph d="M341 -13q-137 0 -215.5 85.5t-78.5 208.5q0 124 78 208t216 84t216 -84t78 -208q0 -123 -78.5 -208.5t-215.5 -85.5zM341 86q83 0 127 56.5t44 138.5t-44 137.5t-127 55.5t-127 -55.5t-44 -137.5t44 -138.5t127 -56.5z" glyph-name="zero.oldstyle" horiz-adv-x="681"/><glyph d="M77 333l-47 92l240 135h99v-461h169l-12 -99h-461v99h181v329z" glyph-name="one.oldstyle" horiz-adv-x="551"/><glyph d="M66 0v99l182 120q72 48 103 82.5t31 72.5q0 47 -40 72.5t-105 25.5q-71 0 -142 -42l-53 84q105 60 216 60q113 0 182 -47t69 -135q0 -66 -42.5 -120t-124.5 -106l-103 -67h275l-9 -99h-439z" glyph-name="two.oldstyle" horiz-adv-x="563"/><glyph d="M239 -41q71 0 114 29.5t43 84.5q0 100 -148 100h-102l12 100h94q59 0 93.5 28t34.5 74q0 49 -40.5 72.5t-101.5 23.5q-79 0 -151 -41l-50 88q98 55 212 55t185.5 -47.5t71.5 -137.5q0 -64 -36 -106t-90 -58q57 -11 99.5 -48.5t42.5 -113.5q0 -97 -72 -151t-201 -54 q-132 0 -232 66l54 87q78 -51 168 -51z" glyph-name="three.oldstyle" horiz-adv-x="574"/><glyph d="M38 18l-7 7l171 544l114 -18l-138 -434h169v152l117 18v-170h110l-12 -99h-98v-148h-117v148h-309z" glyph-name="four.oldstyle" horiz-adv-x="585"/><glyph d="M232 -41q69 0 111 34.5t42 92.5q0 59 -48 88t-119 29q-84 0 -157 -34l-7 5l42 386h387l-11 -99h-290l-19 -167q41 11 93 11q117 0 186.5 -53t69.5 -158q0 -108 -72 -172.5t-202 -64.5q-129 0 -229 66l55 87q83 -51 168 -51z" glyph-name="five.oldstyle" horiz-adv-x="549"/><glyph d="M324 -13q-133 0 -204 89.5t-71 238.5q0 172 84.5 280t239.5 108q105 0 179 -47l-46 -86q-61 32 -132 32q-53 0 -92.5 -21.5t-62 -58.5t-33.5 -82t-11 -98q53 94 172 94q94 0 157.5 -60t63.5 -158q0 -101 -67.5 -166t-176.5 -65zM316 87q57 0 93 34.5t36 89.5t-35.5 90 t-91.5 35t-93 -35t-37 -90q0 -54 36.5 -89t91.5 -35z" glyph-name="six.oldstyle" horiz-adv-x="616"/><glyph d="M230 -139l-126 18l260 581h-344v100h507l7 -6z" glyph-name="seven.oldstyle" horiz-adv-x="563"/><glyph d="M306 -13q-112 0 -185.5 53.5t-73.5 147.5q0 62 35 105t97 64q-50 24 -78.5 66t-28.5 94q0 81 66.5 133.5t167.5 52.5t167.5 -52.5t66.5 -133.5q0 -52 -28.5 -94t-78.5 -66q62 -21 97 -64t35 -105q0 -94 -73.5 -147.5t-185.5 -53.5zM306 87q60 0 97 29t37 78t-37 78.5 t-97 29.5t-97 -29.5t-37 -78.5t37 -78t97 -29zM306 404q52 0 85 28.5t33 70.5q0 43 -33 71.5t-85 28.5t-85 -28.5t-33 -71.5q0 -42 33 -70.5t85 -28.5z" glyph-name="eight.oldstyle" horiz-adv-x="613"/><glyph d="M282 573q133 0 204 -89.5t71 -238.5q0 -172 -84.5 -280t-239.5 -108q-105 0 -179 47l46 86q61 -32 132 -32q53 0 92.5 21.5t62 58.5t33.5 82t11 98q-53 -94 -172 -94q-94 0 -157.5 60t-63.5 158q0 101 67.5 166t176.5 65zM290 473q-57 0 -93 -34.5t-36 -89.5t35.5 -90 t91.5 -35t93 35t37 90q0 54 -36.5 89t-91.5 35z" glyph-name="nine.oldstyle" horiz-adv-x="606"/><glyph d="M450 -13q-154 0 -255.5 104.5t-101.5 253.5t101.5 253.5t255.5 104.5t255.5 -104.5t101.5 -253.5t-101.5 -253.5t-255.5 -104.5zM450 18q139 0 230.5 96t91.5 231t-91.5 231t-230.5 96t-230 -96t-91 -231t91 -231t230 -96zM450 135q-82 0 -125 60t-43 150t43 150t125 60 t125 -60t43 -150t-43 -150t-125 -60zM450 216q71 0 71 129t-71 129q-70 0 -70 -129t70 -129z" glyph-name="zero.ss10"/><glyph d="M450 -13q-154 0 -255.5 104.5t-101.5 253.5t101.5 253.5t255.5 104.5t255.5 -104.5t101.5 -253.5t-101.5 -253.5t-255.5 -104.5zM450 18q139 0 230.5 96t91.5 231t-91.5 231t-230.5 96t-230 -96t-91 -231t91 -231t230 -96zM325 396l-37 72l151 77h79v-318h91l-9 -82h-279 v82h99v217z" glyph-name="one.ss10"/><glyph d="M450 -13q-154 0 -255.5 104.5t-101.5 253.5t101.5 253.5t255.5 104.5t255.5 -104.5t101.5 -253.5t-101.5 -253.5t-255.5 -104.5zM450 18q139 0 230.5 96t91.5 231t-91.5 231t-230.5 96t-230 -96t-91 -231t91 -231t230 -96zM304 145v82l117 78q81 55 81 103q0 32 -24.5 50 t-62.5 18q-45 0 -90 -30l-42 66q71 45 148 45q75 0 122 -35t47 -99q0 -48 -27 -85.5t-80 -74.5l-52 -36h160l-7 -82h-290z" glyph-name="two.ss10"/><glyph d="M450 -13q-154 0 -255.5 104.5t-101.5 253.5t101.5 253.5t255.5 104.5t255.5 -104.5t101.5 -253.5t-101.5 -253.5t-255.5 -104.5zM450 18q139 0 230.5 96t91.5 231t-91.5 231t-230.5 96t-230 -96t-91 -231t91 -231t230 -96zM429 136q-81 0 -150 41l45 71q48 -29 97 -29 q77 0 77 48q0 42 -72 42h-66l9 79h60q30 0 45.5 11.5t15.5 29.5q0 42 -71 42q-48 0 -88 -24l-40 72q65 36 137 36q73 0 119 -30t46 -84q0 -35 -19.5 -59t-51.5 -33q78 -17 78 -92q0 -57 -45 -89t-126 -32z" glyph-name="three.ss10"/><glyph d="M450 -13q-154 0 -255.5 104.5t-101.5 253.5t101.5 253.5t255.5 104.5t255.5 -104.5t101.5 -253.5t-101.5 -253.5t-255.5 -104.5zM450 18q139 0 230.5 96t91.5 231t-91.5 231t-230.5 96t-230 -96t-91 -231t91 -231t230 -96zM278 222l-5 5l97 325l97 -13l-70 -235h63v78 l97 15v-93h52l-9 -82h-43v-77h-97v77h-182z" glyph-name="four.ss10"/><glyph d="M450 -13q-154 0 -255.5 104.5t-101.5 253.5t101.5 253.5t255.5 104.5t255.5 -104.5t101.5 -253.5t-101.5 -253.5t-255.5 -104.5zM450 18q139 0 230.5 96t91.5 231t-91.5 231t-230.5 96t-230 -96t-91 -231t91 -231t230 -96zM421 135q-82 0 -143 41l41 65q51 -30 97 -30 q37 0 59.5 17t22.5 43q0 29 -27.5 41.5t-65.5 12.5q-47 0 -92 -18l-4 3l28 235h237l-8 -73h-163l-9 -74q20 3 40 3q72 0 114.5 -31t42.5 -93q0 -64 -44.5 -103t-125.5 -39z" glyph-name="five.ss10"/><glyph d="M450 -13q-154 0 -255.5 104.5t-101.5 253.5t101.5 253.5t255.5 104.5t255.5 -104.5t101.5 -253.5t-101.5 -253.5t-255.5 -104.5zM450 18q139 0 230.5 96t91.5 231t-91.5 231t-230.5 96t-230 -96t-91 -231t91 -231t230 -96zM435 135q-80 0 -124.5 52.5t-44.5 140.5 q0 99 51.5 163t148.5 64q65 0 112 -29l-36 -68q-34 17 -74 17q-107 0 -111 -120q33 45 96 45q56 0 94 -34.5t38 -91.5q0 -60 -41.5 -99.5t-108.5 -39.5zM431 208q28 0 47 17.5t19 43.5q0 25 -18.5 42t-46.5 17t-47.5 -17t-19.5 -42q0 -26 19 -43.5t47 -17.5z" glyph-name="six.ss10"/><glyph d="M450 -13q-154 0 -255.5 104.5t-101.5 253.5t101.5 253.5t255.5 104.5t255.5 -104.5t101.5 -253.5t-101.5 -253.5t-255.5 -104.5zM450 18q139 0 230.5 96t91.5 231t-91.5 231t-230.5 96t-230 -96t-91 -231t91 -231t230 -96zM435 137l-102 16l142 311h-185v81h319l7 -6z " glyph-name="seven.ss10"/><glyph d="M450 -13q-154 0 -255.5 104.5t-101.5 253.5t101.5 253.5t255.5 104.5t255.5 -104.5t101.5 -253.5t-101.5 -253.5t-255.5 -104.5zM450 18q139 0 230.5 96t91.5 231t-91.5 231t-230.5 96t-230 -96t-91 -231t91 -231t230 -96zM450 135q-68 0 -113 32t-45 88q0 69 74 97 q-59 30 -59 91q0 48 41 80t102 32q62 0 103 -32t41 -80q0 -60 -60 -91q74 -28 74 -97q0 -56 -45 -88t-113 -32zM450 209q31 0 50.5 14t19.5 37q0 24 -19 38t-51 14q-31 0 -50.5 -14t-19.5 -38q0 -23 20 -37t50 -14zM450 383q26 0 43.5 14.5t17.5 35.5q0 20 -17.5 34 t-43.5 14t-43.5 -14t-17.5 -34q0 -21 17.5 -35.5t43.5 -14.5z" glyph-name="eight.ss10"/><glyph d="M450 -13q-154 0 -255.5 104.5t-101.5 253.5t101.5 253.5t255.5 104.5t255.5 -104.5t101.5 -253.5t-101.5 -253.5t-255.5 -104.5zM450 18q139 0 230.5 96t91.5 231t-91.5 231t-230.5 96t-230 -96t-91 -231t91 -231t230 -96zM465 555q80 0 124.5 -52.5t44.5 -140.5 q0 -99 -51.5 -163t-148.5 -64q-65 0 -112 29l36 68q34 -17 74 -17q107 0 111 120q-33 -45 -96 -45q-56 0 -94 34.5t-38 91.5q0 60 41.5 99.5t108.5 39.5zM469 482q-28 0 -47 -17.5t-19 -43.5q0 -25 18.5 -42t46.5 -17t47.5 17t19.5 42q0 26 -19 43.5t-47 17.5z" glyph-name="nine.ss10"/><glyph d="M450 -13q154 0 255.5 104.5t101.5 253.5t-101.5 253.5t-255.5 104.5t-255.5 -104.5t-101.5 -253.5t101.5 -253.5t255.5 -104.5zM450 135q-82 0 -125 60t-43 150t43 150t125 60t125 -60t43 -150t-43 -150t-125 -60zM450 216q71 0 71 129t-71 129q-70 0 -70 -129t70 -129z " glyph-name="zero.ss11"/><glyph d="M450 -13q154 0 255.5 104.5t101.5 253.5t-101.5 253.5t-255.5 104.5t-255.5 -104.5t-101.5 -253.5t101.5 -253.5t255.5 -104.5zM325 396l-37 72l151 77h79v-318h91l-9 -82h-279v82h99v217z" glyph-name="one.ss11"/><glyph d="M450 -13q154 0 255.5 104.5t101.5 253.5t-101.5 253.5t-255.5 104.5t-255.5 -104.5t-101.5 -253.5t101.5 -253.5t255.5 -104.5zM304 145v82l117 78q81 55 81 103q0 32 -24.5 50t-62.5 18q-45 0 -90 -30l-42 66q71 45 148 45q75 0 122 -35t47 -99q0 -48 -27 -85.5 t-80 -74.5l-52 -36h160l-7 -82h-290z" glyph-name="two.ss11"/><glyph d="M450 -13q154 0 255.5 104.5t101.5 253.5t-101.5 253.5t-255.5 104.5t-255.5 -104.5t-101.5 -253.5t101.5 -253.5t255.5 -104.5zM429 136q-81 0 -150 41l45 71q48 -29 97 -29q77 0 77 48q0 42 -72 42h-66l9 79h60q30 0 45.5 11.5t15.5 29.5q0 42 -71 42q-48 0 -88 -24 l-40 72q65 36 137 36q73 0 119 -30t46 -84q0 -35 -19.5 -59t-51.5 -33q78 -17 78 -92q0 -57 -45 -89t-126 -32z" glyph-name="three.ss11"/><glyph d="M450 -13q154 0 255.5 104.5t101.5 253.5t-101.5 253.5t-255.5 104.5t-255.5 -104.5t-101.5 -253.5t101.5 -253.5t255.5 -104.5zM278 222l-5 5l97 325l97 -13l-70 -235h63v78l97 15v-93h52l-9 -82h-43v-77h-97v77h-182z" glyph-name="four.ss11"/><glyph d="M450 -13q154 0 255.5 104.5t101.5 253.5t-101.5 253.5t-255.5 104.5t-255.5 -104.5t-101.5 -253.5t101.5 -253.5t255.5 -104.5zM421 135q-82 0 -143 41l41 65q51 -30 97 -30q37 0 59.5 17t22.5 43q0 29 -27.5 41.5t-65.5 12.5q-47 0 -92 -18l-4 3l28 235h237l-8 -73h-163 l-9 -74q20 3 40 3q72 0 114.5 -31t42.5 -93q0 -64 -44.5 -103t-125.5 -39z" glyph-name="five.ss11"/><glyph d="M450 -13q154 0 255.5 104.5t101.5 253.5t-101.5 253.5t-255.5 104.5t-255.5 -104.5t-101.5 -253.5t101.5 -253.5t255.5 -104.5zM435 135q-80 0 -124.5 52.5t-44.5 140.5q0 99 51.5 163t148.5 64q65 0 112 -29l-36 -68q-34 17 -74 17q-107 0 -111 -120q33 45 96 45 q56 0 94 -34.5t38 -91.5q0 -60 -41.5 -99.5t-108.5 -39.5zM431 208q28 0 47 17.5t19 43.5q0 25 -18.5 42t-46.5 17t-47.5 -17t-19.5 -42q0 -26 19 -43.5t47 -17.5z" glyph-name="six.ss11"/><glyph d="M450 -13q154 0 255.5 104.5t101.5 253.5t-101.5 253.5t-255.5 104.5t-255.5 -104.5t-101.5 -253.5t101.5 -253.5t255.5 -104.5zM435 137l-102 16l142 311h-185v81h319l7 -6z" glyph-name="seven.ss11"/><glyph d="M450 -13q154 0 255.5 104.5t101.5 253.5t-101.5 253.5t-255.5 104.5t-255.5 -104.5t-101.5 -253.5t101.5 -253.5t255.5 -104.5zM450 135q-68 0 -113 32t-45 88q0 69 74 97q-59 30 -59 91q0 48 41 80t102 32q62 0 103 -32t41 -80q0 -60 -60 -91q74 -28 74 -97 q0 -56 -45 -88t-113 -32zM450 209q31 0 50.5 14t19.5 37q0 24 -19 38t-51 14q-31 0 -50.5 -14t-19.5 -38q0 -23 20 -37t50 -14zM450 383q26 0 43.5 14.5t17.5 35.5q0 20 -17.5 34t-43.5 14t-43.5 -14t-17.5 -34q0 -21 17.5 -35.5t43.5 -14.5z" glyph-name="eight.ss11"/><glyph d="M450 -13q154 0 255.5 104.5t101.5 253.5t-101.5 253.5t-255.5 104.5t-255.5 -104.5t-101.5 -253.5t101.5 -253.5t255.5 -104.5zM465 555q80 0 124.5 -52.5t44.5 -140.5q0 -99 -51.5 -163t-148.5 -64q-65 0 -112 29l36 68q34 -17 74 -17q107 0 111 120q-33 -45 -96 -45 q-56 0 -94 34.5t-38 91.5q0 60 41.5 99.5t108.5 39.5zM469 482q-28 0 -47 -17.5t-19 -43.5q0 -25 18.5 -42t46.5 -17t47.5 17t19.5 42q0 26 -19 43.5t-47 17.5z" glyph-name="nine.ss11"/><glyph d="M105 0v690h690v-690h-690zM141 32h618v626h-618v-626zM450 135q-82 0 -125 60t-43 150t43 150t125 60t125 -60t43 -150t-43 -150t-125 -60zM450 216q71 0 71 129t-71 129q-70 0 -70 -129t70 -129z" glyph-name="zero.ss12"/><glyph d="M105 0v690h690v-690h-690zM141 32h618v626h-618v-626zM325 396l-37 72l151 77h79v-318h91l-9 -82h-279v82h99v217z" glyph-name="one.ss12"/><glyph d="M105 0v690h690v-690h-690zM141 32h618v626h-618v-626zM304 145v82l117 78q81 55 81 103q0 32 -24.5 50t-62.5 18q-45 0 -90 -30l-42 66q71 45 148 45q75 0 122 -35t47 -99q0 -48 -27 -85.5t-80 -74.5l-52 -36h160l-7 -82h-290z" glyph-name="two.ss12"/><glyph d="M105 0v690h690v-690h-690zM141 32h618v626h-618v-626zM429 136q-81 0 -150 41l45 71q48 -29 97 -29q77 0 77 48q0 42 -72 42h-66l9 79h60q30 0 45.5 11.5t15.5 29.5q0 42 -71 42q-48 0 -88 -24l-40 72q65 36 137 36q73 0 119 -30t46 -84q0 -35 -19.5 -59t-51.5 -33 q78 -17 78 -92q0 -57 -45 -89t-126 -32z" glyph-name="three.ss12"/><glyph d="M105 0v690h690v-690h-690zM141 32h618v626h-618v-626zM278 222l-5 5l97 325l97 -13l-70 -235h63v78l97 15v-93h52l-9 -82h-43v-77h-97v77h-182z" glyph-name="four.ss12"/><glyph d="M105 0v690h690v-690h-690zM141 32h618v626h-618v-626zM421 135q-82 0 -143 41l41 65q51 -30 97 -30q37 0 59.5 17t22.5 43q0 29 -27.5 41.5t-65.5 12.5q-47 0 -92 -18l-4 3l28 235h237l-8 -73h-163l-9 -74q20 3 40 3q72 0 114.5 -31t42.5 -93q0 -64 -44.5 -103 t-125.5 -39z" glyph-name="five.ss12"/><glyph d="M105 0v690h690v-690h-690zM141 32h618v626h-618v-626zM435 135q-80 0 -124.5 52.5t-44.5 140.5q0 99 51.5 163t148.5 64q65 0 112 -29l-36 -68q-34 17 -74 17q-107 0 -111 -120q33 45 96 45q56 0 94 -34.5t38 -91.5q0 -60 -41.5 -99.5t-108.5 -39.5zM431 208 q28 0 47 17.5t19 43.5q0 25 -18.5 42t-46.5 17t-47.5 -17t-19.5 -42q0 -26 19 -43.5t47 -17.5z" glyph-name="six.ss12"/><glyph d="M105 0v690h690v-690h-690zM141 32h618v626h-618v-626zM435 137l-102 16l142 311h-185v81h319l7 -6z" glyph-name="seven.ss12"/><glyph d="M105 0v690h690v-690h-690zM141 32h618v626h-618v-626zM450 135q-68 0 -113 32t-45 88q0 69 74 97q-59 30 -59 91q0 48 41 80t102 32q62 0 103 -32t41 -80q0 -60 -60 -91q74 -28 74 -97q0 -56 -45 -88t-113 -32zM450 209q31 0 50.5 14t19.5 37q0 24 -19 38t-51 14 q-31 0 -50.5 -14t-19.5 -38q0 -23 20 -37t50 -14zM450 383q26 0 43.5 14.5t17.5 35.5q0 20 -17.5 34t-43.5 14t-43.5 -14t-17.5 -34q0 -21 17.5 -35.5t43.5 -14.5z" glyph-name="eight.ss12"/><glyph d="M105 0v690h690v-690h-690zM141 32h618v626h-618v-626zM465 555q80 0 124.5 -52.5t44.5 -140.5q0 -99 -51.5 -163t-148.5 -64q-65 0 -112 29l36 68q34 -17 74 -17q107 0 111 120q-33 -45 -96 -45q-56 0 -94 34.5t-38 91.5q0 60 41.5 99.5t108.5 39.5zM469 482 q-28 0 -47 -17.5t-19 -43.5q0 -25 18.5 -42t46.5 -17t47.5 17t19.5 42q0 26 -19 43.5t-47 17.5z" glyph-name="nine.ss12"/><glyph d="M105 0h690v690h-690v-690zM450 135q-82 0 -125 60t-43 150t43 150t125 60t125 -60t43 -150t-43 -150t-125 -60zM450 216q71 0 71 129t-71 129q-70 0 -70 -129t70 -129z" glyph-name="zero.ss13"/><glyph d="M105 0h690v690h-690v-690zM325 396l-37 72l151 77h79v-318h91l-9 -82h-279v82h99v217z" glyph-name="one.ss13"/><glyph d="M105 0h690v690h-690v-690zM304 145v82l117 78q81 55 81 103q0 32 -24.5 50t-62.5 18q-45 0 -90 -30l-42 66q71 45 148 45q75 0 122 -35t47 -99q0 -48 -27 -85.5t-80 -74.5l-52 -36h160l-7 -82h-290z" glyph-name="two.ss13"/><glyph d="M105 0h690v690h-690v-690zM429 136q-81 0 -150 41l45 71q48 -29 97 -29q77 0 77 48q0 42 -72 42h-66l9 79h60q30 0 45.5 11.5t15.5 29.5q0 42 -71 42q-48 0 -88 -24l-40 72q65 36 137 36q73 0 119 -30t46 -84q0 -35 -19.5 -59t-51.5 -33q78 -17 78 -92q0 -57 -45 -89 t-126 -32z" glyph-name="three.ss13"/><glyph d="M105 0h690v690h-690v-690zM278 222l-5 5l97 325l97 -13l-70 -235h63v78l97 15v-93h52l-9 -82h-43v-77h-97v77h-182z" glyph-name="four.ss13"/><glyph d="M105 0h690v690h-690v-690zM421 135q-82 0 -143 41l41 65q51 -30 97 -30q37 0 59.5 17t22.5 43q0 29 -27.5 41.5t-65.5 12.5q-47 0 -92 -18l-4 3l28 235h237l-8 -73h-163l-9 -74q20 3 40 3q72 0 114.5 -31t42.5 -93q0 -64 -44.5 -103t-125.5 -39z" glyph-name="five.ss13"/><glyph d="M105 0h690v690h-690v-690zM435 135q-80 0 -124.5 52.5t-44.5 140.5q0 99 51.5 163t148.5 64q65 0 112 -29l-36 -68q-34 17 -74 17q-107 0 -111 -120q33 45 96 45q56 0 94 -34.5t38 -91.5q0 -60 -41.5 -99.5t-108.5 -39.5zM431 208q28 0 47 17.5t19 43.5q0 25 -18.5 42 t-46.5 17t-47.5 -17t-19.5 -42q0 -26 19 -43.5t47 -17.5z" glyph-name="six.ss13"/><glyph d="M105 0h690v690h-690v-690zM435 137l-102 16l142 311h-185v81h319l7 -6z" glyph-name="seven.ss13"/><glyph d="M105 0h690v690h-690v-690zM450 135q-68 0 -113 32t-45 88q0 69 74 97q-59 30 -59 91q0 48 41 80t102 32q62 0 103 -32t41 -80q0 -60 -60 -91q74 -28 74 -97q0 -56 -45 -88t-113 -32zM450 209q31 0 50.5 14t19.5 37q0 24 -19 38t-51 14q-31 0 -50.5 -14t-19.5 -38 q0 -23 20 -37t50 -14zM450 383q26 0 43.5 14.5t17.5 35.5q0 20 -17.5 34t-43.5 14t-43.5 -14t-17.5 -34q0 -21 17.5 -35.5t43.5 -14.5z" glyph-name="eight.ss13"/><glyph d="M105 0h690v690h-690v-690zM465 555q80 0 124.5 -52.5t44.5 -140.5q0 -99 -51.5 -163t-148.5 -64q-65 0 -112 29l36 68q34 -17 74 -17q107 0 111 120q-33 -45 -96 -45q-56 0 -94 34.5t-38 91.5q0 60 41.5 99.5t108.5 39.5zM469 482q-28 0 -47 -17.5t-19 -43.5 q0 -25 18.5 -42t46.5 -17t47.5 17t19.5 42q0 26 -19 43.5t-47 17.5z" glyph-name="nine.ss13"/><glyph d="M311 289q-24 0 -40.5 16.5t-16.5 40.5q0 23 16.5 39.5t40.5 16.5q23 0 39.5 -16.5t16.5 -39.5q0 -24 -16.5 -40.5t-39.5 -16.5zM310 -11q-92 0 -155.5 50.5t-91 128.5t-27.5 177t27.5 177t91 128.5t155.5 50.5t155.5 -50.5t91 -128.5t27.5 -177t-27.5 -177t-91 -128.5 t-155.5 -50.5zM310 92q77 0 112.5 69.5t35.5 183.5t-35.5 183.5t-112.5 69.5t-112.5 -69.5t-35.5 -183.5t35.5 -183.5t112.5 -69.5z" glyph-name="zero.pnum.zero" horiz-adv-x="620"/><glyph d="M341 234q-20 0 -33.5 13.5t-13.5 33.5t13.5 33t33.5 13t33.5 -13t13.5 -33t-13.5 -33.5t-33.5 -13.5zM341 -13q-137 0 -215.5 85.5t-78.5 208.5q0 124 78 208t216 84t216 -84t78 -208q0 -123 -78.5 -208.5t-215.5 -85.5zM341 86q83 0 127 56.5t44 138.5t-44 137.5 t-127 55.5t-127 -55.5t-44 -137.5t44 -138.5t127 -56.5z" glyph-name="zero.oldstyle.zero" horiz-adv-x="681"/><glyph d="M190 -10q-82 0 -125 60t-43 150t43 150t125 60t125 -60t43 -150t-43 -150t-125 -60zM190 71q71 0 71 129t-71 129q-70 0 -70 -129t70 -129z" glyph-name="zero.dnom" horiz-adv-x="380"/><glyph d="M67 251l-37 72l151 77h79v-318h91l-9 -82h-279v82h99v217z" glyph-name="one.dnom" horiz-adv-x="380"/><glyph d="M45 0v82l117 78q81 56 81 103q0 32 -24.5 50t-62.5 18q-45 0 -90 -30l-42 66q71 45 148 45q75 0 122 -35t47 -99q0 -48 -27 -85.5t-80 -74.5l-52 -36h160l-7 -82h-290z" glyph-name="two.dnom" horiz-adv-x="380"/><glyph d="M173 -9q-81 0 -150 41l45 71q48 -29 97 -29q77 0 77 48q0 42 -72 42h-66l9 79h60q30 0 45.5 11.5t15.5 29.5q0 42 -71 42q-48 0 -88 -24l-40 72q65 36 137 36q73 0 119 -30t46 -84q0 -35 -19.5 -59t-51.5 -33q78 -17 78 -92q0 -57 -45 -89t-126 -32z" glyph-name="three.dnom" horiz-adv-x="380"/><glyph d="M27 77l-5 5l97 325l97 -13l-70 -235h63v78l97 15v-93h52l-9 -82h-43v-77h-97v77h-182z" glyph-name="four.dnom" horiz-adv-x="380"/><glyph d="M172 -10q-82 0 -143 41l41 65q51 -30 97 -30q37 0 59.5 17t22.5 43q0 29 -27.5 41.5t-65.5 12.5q-47 0 -92 -18l-4 3l28 235h237l-8 -73h-163l-9 -74q20 3 40 3q72 0 114.5 -31t42.5 -93q0 -64 -44.5 -103t-125.5 -39z" glyph-name="five.dnom" horiz-adv-x="380"/><glyph d="M201 -10q-80 0 -124.5 52.5t-44.5 140.5q0 99 51.5 163t148.5 64q65 0 112 -29l-36 -68q-34 17 -74 17q-107 0 -111 -120q33 45 96 45q56 0 94 -34.5t38 -91.5q0 -60 -41.5 -99.5t-108.5 -39.5zM197 63q28 0 47 17.5t19 43.5q0 25 -18.5 42t-46.5 17t-47.5 -17t-19.5 -42 q0 -26 19 -43.5t47 -17.5z" glyph-name="six.dnom" horiz-adv-x="380"/><glyph d="M175 -8l-102 16l142 311h-185v81h319l7 -6z" glyph-name="seven.dnom" horiz-adv-x="380"/><glyph d="M190 -10q-68 0 -113 32t-45 88q0 69 74 97q-59 30 -59 91q0 48 41 80t102 32q62 0 103 -32t41 -80q0 -60 -60 -91q74 -28 74 -97q0 -56 -45 -88t-113 -32zM190 64q31 0 50.5 14t19.5 37q0 24 -19 38t-51 14q-31 0 -50.5 -14t-19.5 -38q0 -23 20 -37t50 -14zM190 238 q26 0 43.5 14.5t17.5 35.5q0 20 -17.5 34t-43.5 14t-43.5 -14t-17.5 -34q0 -21 17.5 -35.5t43.5 -14.5z" glyph-name="eight.dnom" horiz-adv-x="380"/><glyph d="M179 410q80 0 124.5 -52.5t44.5 -140.5q0 -99 -51.5 -163t-148.5 -64q-65 0 -112 29l36 68q34 -17 74 -17q107 0 111 120q-33 -45 -96 -45q-56 0 -94 34.5t-38 91.5q0 60 41.5 99.5t108.5 39.5zM183 337q-28 0 -47 -17.5t-19 -43.5q0 -25 18.5 -42t46.5 -17t47.5 17 t19.5 42q0 26 -19 43.5t-47 17.5z" glyph-name="nine.dnom" horiz-adv-x="380"/><glyph d="M190 283q-82 0 -125 60t-43 150t43 150t125 60t125 -60t43 -150t-43 -150t-125 -60zM190 364q71 0 71 129t-71 129q-70 0 -70 -129t70 -129z" glyph-name="zero.numr" horiz-adv-x="380"/><glyph d="M67 541l-37 72l151 77h79v-318h91l-9 -82h-279v82h99v217z" glyph-name="one.numr" horiz-adv-x="380"/><glyph d="M45 290v82l117 78q81 56 81 103q0 32 -24.5 50t-62.5 18q-45 0 -90 -30l-42 66q71 45 148 45q75 0 122 -35t47 -99q0 -48 -27 -85.5t-80 -74.5l-52 -36h160l-7 -82h-290z" glyph-name="two.numr" horiz-adv-x="380"/><glyph d="M173 281q-81 0 -150 41l45 71q48 -29 97 -29q77 0 77 48q0 42 -72 42h-66l9 79h60q30 0 45.5 11.5t15.5 29.5q0 42 -71 42q-48 0 -88 -24l-40 72q65 36 137 36q73 0 119 -30t46 -84q0 -35 -19.5 -59t-51.5 -33q78 -17 78 -92q0 -57 -45 -89t-126 -32z" glyph-name="three.numr" horiz-adv-x="380"/><glyph d="M27 367l-5 5l97 325l97 -13l-70 -235h63v78l97 15v-93h52l-9 -82h-43v-77h-97v77h-182z" glyph-name="four.numr" horiz-adv-x="380"/><glyph d="M172 280q-82 0 -143 41l41 65q51 -30 97 -30q37 0 59.5 17t22.5 43q0 29 -27.5 41.5t-65.5 12.5q-47 0 -92 -18l-4 3l28 235h237l-8 -73h-163l-9 -74q19 3 40 3q72 0 114.5 -31t42.5 -93q0 -64 -44.5 -103t-125.5 -39z" glyph-name="five.numr" horiz-adv-x="380"/><glyph d="M201 280q-80 0 -124.5 52.5t-44.5 140.5q0 99 51.5 163t148.5 64q65 0 112 -29l-36 -68q-34 17 -74 17q-107 0 -111 -120q33 45 96 45q56 0 94 -34.5t38 -91.5q0 -60 -41.5 -99.5t-108.5 -39.5zM197 353q28 0 47 17.5t19 43.5q0 25 -18.5 42t-46.5 17t-47.5 -17 t-19.5 -42q0 -26 19 -43.5t47 -17.5z" glyph-name="six.numr" horiz-adv-x="380"/><glyph d="M175 282l-102 16l142 311h-185v81h319l7 -6z" glyph-name="seven.numr" horiz-adv-x="380"/><glyph d="M190 280q-68 0 -113 32t-45 88q0 69 74 97q-59 30 -59 91q0 48 41 80t102 32q62 0 103 -32t41 -80q0 -60 -60 -91q74 -28 74 -97q0 -56 -45 -88t-113 -32zM190 354q31 0 50.5 14t19.5 37q0 24 -19 38t-51 14q-31 0 -50.5 -14t-19.5 -38q0 -23 20 -37t50 -14zM190 528 q26 0 43.5 14.5t17.5 35.5q0 20 -17.5 34t-43.5 14t-43.5 -14t-17.5 -34q0 -21 17.5 -35.5t43.5 -14.5z" glyph-name="eight.numr" horiz-adv-x="380"/><glyph d="M179 700q80 0 124.5 -52.5t44.5 -140.5q0 -99 -51.5 -163t-148.5 -64q-65 0 -112 29l36 68q34 -17 74 -17q107 0 111 120q-33 -45 -96 -45q-56 0 -94 34.5t-38 91.5q0 60 41.5 99.5t108.5 39.5zM183 627q-28 0 -47 -17.5t-19 -43.5q0 -25 18.5 -42t46.5 -17t47.5 17 t19.5 42q0 26 -19 43.5t-47 17.5z" glyph-name="nine.numr" horiz-adv-x="380"/><glyph d="M182 485l12 -476l-123 -18l12 494h99zM134 701q35 0 56.5 -22t21.5 -56t-21.5 -56t-56.5 -22t-56.5 22t-21.5 56t21.5 56t56.5 22z" glyph-name="exclamdown.case" horiz-adv-x="268"/><glyph d="M297 290q-138 -12 -138 -105q0 -45 32 -70.5t84 -25.5q70 0 127 39l43 -87q-89 -54 -190 -54q-95 0 -157 45.5t-62 139.5q0 138 162 190v123h99v-195zM247 701q35 0 56.5 -22t21.5 -56t-21.5 -56t-56.5 -22t-56 22t-21 56t21 56t56 22z" glyph-name="questiondown.case" horiz-adv-x="474"/><glyph d="M6 -137l218 964h123l-218 -964h-123z" glyph-name="slash.case" horiz-adv-x="394"/><glyph d="M265 -137l-218 964h123l218 -964h-123z" glyph-name="backslash.case" horiz-adv-x="394"/><glyph d="M5 307q-35 0 -56.5 22t-21.5 56t21.5 56t56.5 22t56.5 -22t21.5 -56t-21.5 -56t-56.5 -22z" glyph-name="glyph581" horiz-adv-x="98"/><glyph d="M-132 310q-35 0 -56.5 22t-21.5 56t21.5 56t56.5 22t56.5 -22t21.5 -56t-21.5 -56t-56.5 -22z" glyph-name="glyph582" horiz-adv-x="0"/><glyph d="M66 275v100h335l-12 -100h-323z" glyph-name="hyphen.case" horiz-adv-x="467"/><glyph d="M66 295v100h455l-12 -100h-443z" glyph-name="endash.case" horiz-adv-x="587"/><glyph d="M66 295v100h565l-12 -100h-553z" glyph-name="emdash.case" horiz-adv-x="697"/><glyph d="M190 -136q-72 108 -111 236.5t-39 245.5t39 245.5t111 236.5h131q-158 -238 -158 -482t158 -482h-131z" glyph-name="parenleft.case" horiz-adv-x="350"/><glyph d="M29 -136q158 238 158 482t-158 482h131q72 -108 111 -236.5t39 -245.5t-39 -245.5t-111 -236.5h-131z" glyph-name="parenright.case" horiz-adv-x="350"/><glyph d="M280 -137q-99 0 -144 52.5t-29 151.5l16 78q12 64 -9.5 99t-83.5 51v100q62 16 83.5 51t9.5 99l-16 78q-16 99 29 151.5t144 52.5h75l-12 -99h-31q-104 0 -84 -102l18 -117q12 -63 -17.5 -105t-87.5 -58v-2q58 -16 87.5 -58t17.5 -105l-18 -117q-20 -102 84 -102h43 l-12 -99h-63z" glyph-name="braceleft.case" horiz-adv-x="387"/><glyph d="M107 827q99 0 144 -52.5t29 -151.5l-16 -78q-12 -64 9.5 -99t83.5 -51v-100q-62 -16 -83.5 -51t-9.5 -99l16 -78q16 -99 -29 -151.5t-144 -52.5h-75l12 99h31q104 0 84 102l-18 117q-12 63 17.5 105t87.5 58v2q-58 16 -87.5 58t-17.5 105l18 117q20 102 -84 102h-43 l12 99h63z" glyph-name="braceright.case" horiz-adv-x="387"/><glyph d="M67 -137v964h250l-12 -99h-115v-766h127l-12 -99h-238z" glyph-name="bracketleft.case" horiz-adv-x="349"/><glyph d="M282 827v-964h-250l12 99h115v766h-127l12 99h238z" glyph-name="bracketright.case" horiz-adv-x="349"/><glyph d="M210 154l-163 191l163 191l73 -62l-110 -129l110 -129zM418 154l-163 191l163 191l73 -62l-110 -129l110 -129z" glyph-name="guillemotleft.case" horiz-adv-x="542"/><glyph d="M332 154l-73 62l110 129l-110 129l73 62l163 -191zM124 154l-73 62l110 129l-110 129l73 62l163 -191z" glyph-name="guillemotright.case" horiz-adv-x="542"/><glyph d="M210 154l-163 191l163 191l73 -62l-110 -129l110 -129z" glyph-name="guilsinglleft.case" horiz-adv-x="335"/><glyph d="M125 154l-73 62l110 129l-110 129l73 62l163 -191z" glyph-name="guilsinglright.case" horiz-adv-x="335"/><glyph d="M30 -147q61 35 96 82t45 122l16 116h-132l11 99h135l10 72q16 114 82.5 171.5t174.5 57.5q62 0 116 -20l-44 -94q-33 13 -70 13q-118 0 -137 -134l-9 -66h192l-24 -99h-182l-16 -117q-14 -104 -61.5 -173t-154.5 -120z" glyph-name="florin.oldstyle" horiz-adv-x="612"/><glyph d="M206 524q16 114 82.5 171.5t174.5 57.5q62 0 116 -20l-45 -94q-32 13 -69 13q-119 0 -137 -134l-16 -115h194l-24 -99h-184l-74 -529h-123l74 529h-130l11 99h133z" glyph-name="florin.tnum" horiz-adv-x="620"/><glyph d="M67 -137v964h123v-964h-123z" glyph-name="bar.case" horiz-adv-x="256"/><glyph d="M67 -137v429h123v-429h-123zM67 398v429h123v-429h-123z" glyph-name="brokenbar.case" horiz-adv-x="256"/><glyph d="M223 0v98q-85 22 -134.5 87.5t-49.5 159.5q0 95 49.5 160.5t134.5 86.5v89l122 18v-100q57 -7 109 -36l-42 -91q-49 27 -96 27q-70 0 -110.5 -43.5t-40.5 -110.5t40.5 -110.5t110.5 -43.5q47 0 96 27l42 -91q-50 -28 -109 -35v-92h-122z" glyph-name="cent.pnum" horiz-adv-x="487"/><glyph d="M271 157q-59 0 -104 28l-79 -79l-56 56l79 79q-28 45 -28 104q0 60 28 105l-79 78l56 56l79 -79q45 28 104 28t105 -27l78 78l56 -56l-78 -78q27 -46 27 -105t-28 -104l79 -79l-56 -56l-79 79q-45 -28 -104 -28zM271 228q51 0 82.5 33t31.5 84t-31.5 84t-82.5 33 q-50 0 -82 -33t-32 -84t32 -84t82 -33z" glyph-name="currency.pnum" horiz-adv-x="541"/><glyph d="M260 -124v126q-136 10 -233 107l55 68q84 -76 178 -85v226l-18 4q-166 38 -166 177q0 79 51 126t133 60v116l83 10v-123q114 -6 196 -66l-49 -74q-70 45 -147 51v-199l13 -3q80 -20 128 -61t48 -123q0 -86 -52.5 -140t-136.5 -68v-129h-83zM191 506q0 -59 69 -84v170 q-69 -19 -69 -86zM343 101q74 27 74 102q0 65 -74 93v-195z" glyph-name="dollar.pnum" horiz-adv-x="575"/><glyph d="M435 -13q-112 0 -193 63t-112 171h-93v93h77l-1 31l1 31h-77v93h93q31 108 112 171t193 63q79 0 145 -29l-32 -96q-44 23 -100 23q-66 0 -113.5 -35.5t-72.5 -96.5h245l-26 -93h-241l-1 -31l1 -31h223l-26 -93h-175q25 -61 72.5 -96.5t113.5 -35.5q56 0 100 23l32 -96 q-66 -29 -145 -29z" glyph-name="Euro.pnum" horiz-adv-x="613"/><glyph d="M35 110v93h86v64h-86v93h86v330h219q110 0 177.5 -56t67.5 -156q0 -99 -67.5 -155t-177.5 -56h-97v-64h180l-12 -93h-168v-110h-122v110h-86zM243 365h98q55 0 88.5 31t33.5 82q0 52 -33.5 83t-88.5 31h-98v-227z" glyph-name="uni20BD.pnum" horiz-adv-x="614"/><glyph d="M39 99q108 73 108 186v12h-108v92h84q-28 73 -28 111q0 92 69.5 147.5t180.5 55.5q104 0 180 -45l-40 -90q-58 33 -128 33q-64 0 -101.5 -31t-37.5 -87q0 -34 26 -94h201l-12 -92h-163v-13q0 -61 -30 -108.5t-67 -76.5h360l-14 -99h-480v99z" glyph-name="sterling.pnum" horiz-adv-x="566"/><glyph d="M263 0v116h-189v93h189v64h-189v92h141l-186 316l124 18l171 -304l171 304l124 -18l-186 -316h147l-12 -92h-182v-64h194l-12 -93h-182v-116h-123z" glyph-name="yen.pnum" horiz-adv-x="645"/><glyph d="M223 -65v98q-85 22 -134.5 87.5t-49.5 159.5q0 95 49.5 160.5t134.5 86.5v89l122 18v-100q57 -7 109 -36l-42 -91q-49 27 -96 27q-70 0 -110.5 -43.5t-40.5 -110.5t40.5 -110.5t110.5 -43.5q47 0 96 27l42 -91q-50 -28 -109 -35v-92h-122z" glyph-name="cent.oldstyle" horiz-adv-x="487"/><glyph d="M271 92q-59 0 -104 28l-79 -79l-56 56l79 79q-28 45 -28 104q0 60 28 105l-79 78l56 56l79 -79q45 28 104 28t105 -27l78 78l56 -56l-78 -78q27 -46 27 -105t-28 -104l79 -79l-56 -56l-79 79q-45 -28 -104 -28zM271 163q51 0 82.5 33t31.5 84t-31.5 84t-82.5 33 q-50 0 -82 -33t-32 -84t32 -84t82 -33z" glyph-name="currency.oldstyle" horiz-adv-x="541"/><glyph d="M238 -124v112q-124 10 -209 92l53 66q73 -62 156 -71v175l-14 3q-151 32 -151 154q0 68 45.5 109t119.5 53v115l83 12v-124q101 -6 176 -57l-48 -73q-57 37 -128 43v-156l9 -2q35 -8 60.5 -18t49.5 -27.5t37 -45.5t13 -66q0 -74 -47 -120t-122 -59v-115h-83zM186 414 q0 -44 52 -63v127q-52 -17 -52 -64zM321 84q57 22 57 77q0 47 -57 69v-146z" glyph-name="dollar.oldstyle" horiz-adv-x="532"/><glyph d="M421 -13q-103 0 -179 46.5t-109 128.5h-94v83h75l-2 35l1 26h-74v92h94q33 82 109 128.5t179 46.5q101 0 182 -44l-41 -89q-60 35 -132 35q-107 0 -162 -77h218l-26 -92h-225l-1 -26q0 -13 2 -35h207l-23 -83h-152q55 -77 162 -77q68 0 131 35l42 -89q-80 -44 -182 -44z " glyph-name="Euro.oldstyle" horiz-adv-x="636"/><glyph d="M40 61v92h84v62h-84v92h84v253h260q92 0 146 -46.5t54 -125.5q0 -80 -54 -126.5t-146 -46.5h-138v-62h208l-12 -92h-196v-61h-122v61h-84zM246 312h118q91 0 91 76q0 37 -24.5 56t-66.5 19h-118v-151z" glyph-name="uni20BD.oldstyle" horiz-adv-x="622"/><glyph d="M39 98q93 49 97 133h-97v96h71q-21 44 -21 79q0 77 65 122t168 45q91 0 169 -35l-39 -88q-56 23 -117 23q-55 0 -89 -23.5t-34 -64.5q0 -24 17 -58h186l-12 -96h-145q-2 -75 -72 -133h311l-15 -98h-443v98z" glyph-name="sterling.oldstyle" horiz-adv-x="533"/><glyph d="M249 0v70h-177v92h177v62h-177v93h136l-177 241l122 12l156 -216l156 216l123 -12l-177 -241h141l-12 -93h-170v-62h182l-12 -92h-170v-70h-121z" glyph-name="yen.oldstyle" horiz-adv-x="618"/><glyph d="M289 0v98q-85 22 -134.5 87.5t-49.5 159.5q0 95 49.5 160.5t134.5 86.5v89l122 18v-100q57 -7 109 -36l-42 -91q-49 27 -96 27q-70 0 -110.5 -43.5t-40.5 -110.5t40.5 -110.5t110.5 -43.5q47 0 96 27l42 -91q-50 -28 -109 -35v-92h-122z" glyph-name="cent.tnum" horiz-adv-x="620"/><glyph d="M310 157q-59 0 -104 28l-79 -79l-56 56l79 79q-28 45 -28 104q0 60 28 105l-79 78l56 56l79 -79q45 28 104 28t105 -27l78 78l56 -56l-78 -78q27 -46 27 -105t-28 -104l79 -79l-56 -56l-79 79q-45 -28 -104 -28zM310 228q51 0 82.5 33t31.5 84t-31.5 84t-82.5 33 q-50 0 -82 -33t-32 -84t32 -84t82 -33z" glyph-name="currency.tnum" horiz-adv-x="620"/><glyph d="M283 -124v126q-136 10 -233 107l55 68q84 -76 178 -85v226l-18 4q-166 38 -166 177q0 79 51 126t133 60v116l83 10v-123q114 -6 196 -66l-49 -74q-70 45 -147 51v-199l13 -3q80 -20 128 -61t48 -123q0 -86 -52.5 -140t-136.5 -68v-129h-83zM214 506q0 -59 69 -84v170 q-69 -19 -69 -86zM366 101q74 27 74 102q0 65 -74 93v-195z" glyph-name="dollar.tnum" horiz-adv-x="620"/><glyph d="M438 -13q-112 0 -193 63t-112 171h-93v93h77l-1 31l1 31h-77v93h93q31 108 112 171t193 63q79 0 145 -29l-32 -96q-44 23 -100 23q-66 0 -113.5 -35.5t-72.5 -96.5h245l-26 -93h-241l-1 -31l1 -31h223l-26 -93h-175q25 -61 72.5 -96.5t113.5 -35.5q56 0 100 23l32 -96 q-66 -29 -145 -29z" glyph-name="Euro.tnum" horiz-adv-x="620"/><glyph d="M38 110v93h86v64h-86v93h86v330h219q110 0 177.5 -56t67.5 -156q0 -99 -67.5 -155t-177.5 -56h-97v-64h180l-12 -93h-168v-110h-122v110h-86zM246 365h98q55 0 88.5 31t33.5 82q0 52 -33.5 83t-88.5 31h-98v-227z" glyph-name="uni20BD.tnum" horiz-adv-x="620"/><glyph d="M66 99q108 73 108 186v12h-108v92h84q-28 73 -28 111q0 92 69.5 147.5t180.5 55.5q104 0 180 -45l-40 -90q-58 33 -128 33q-64 0 -101.5 -31t-37.5 -87q0 -34 26 -94h201l-12 -92h-163v-13q0 -61 -30 -108.5t-67 -76.5h360l-14 -99h-480v99z" glyph-name="sterling.tnum" horiz-adv-x="620"/><glyph d="M250 0v116h-189v93h189v64h-189v92h141l-186 316l124 18l171 -304l171 304l124 -18l-186 -316h147l-12 -92h-182v-64h194l-12 -93h-182v-116h-123z" glyph-name="yen.tnum" horiz-adv-x="620"/><glyph d="M232 98v204h-197v91h197v205h106v-205h197v-91h-197v-204h-106z" glyph-name="plus.pnum" horiz-adv-x="569"/><glyph d="M66 302v91h500v-91h-500z" glyph-name="minus.pnum" horiz-adv-x="633"/><glyph d="M467 98l-186 185l-185 -185l-65 63l186 187l-186 185l65 65l185 -186l186 186l64 -65l-186 -186l186 -186z" glyph-name="multiply.pnum" horiz-adv-x="562"/><glyph d="M35 302v91h500v-91h-500zM285 467q-27 0 -46 18.5t-19 46.5t19 47t46 19q28 0 46.5 -19t18.5 -47t-18.5 -46.5t-46.5 -18.5zM285 98q-27 0 -46 18.5t-19 46.5t19 46.5t46 18.5q28 0 46.5 -18.5t18.5 -46.5t-18.5 -46.5t-46.5 -18.5z" glyph-name="divide.pnum" horiz-adv-x="569"/><glyph d="M49 414v91h500v-91h-500zM49 191v91h500v-91h-500z" glyph-name="equal.pnum" horiz-adv-x="597"/><glyph d="M128 98l40 93h-124v91h163l56 132h-219v91h258l40 93h109l-39 -93h132v-91h-171l-56 -132h227v-91h-266l-39 -93h-111z" glyph-name="notequal.pnum" horiz-adv-x="588"/><glyph d="M41 98v97l377 153l-377 153v97l500 -205v-91z" glyph-name="greater.pnum" horiz-adv-x="576"/><glyph d="M535 98l-500 204v91l500 205v-97l-377 -153l377 -153v-97z" glyph-name="less.pnum" horiz-adv-x="576"/><glyph d="M48 223v85l384 102l-384 103v85l500 -148v-79zM48 98v80h500v-80h-500z" glyph-name="greaterequal.pnum" horiz-adv-x="588"/><glyph d="M541 223l-500 148v79l500 148v-85l-384 -103l384 -102v-85zM41 98v80h500v-80h-500z" glyph-name="lessequal.pnum" horiz-adv-x="589"/><glyph d="M42 370v91h197v137h106v-137h197v-91h-197v-138h-106v138h-197zM42 98v91h500v-91h-500z" glyph-name="plusminus.pnum" horiz-adv-x="584"/><glyph d="M409 127q-40 0 -78 22.5t-70 45t-58 22.5q-28 0 -44.5 -22t-18.5 -58h-92q0 90 36.5 139t101.5 49q39 0 76.5 -22.5t70 -45t59.5 -22.5q29 0 45.5 22t18.5 58h92q0 -90 -36.5 -139t-102.5 -49zM409 365q-40 0 -78 22.5t-70 45t-58 22.5q-28 0 -44.5 -22t-18.5 -58h-92 q0 90 36.5 139t101.5 49q39 0 76.5 -22.5t70 -45t59.5 -22.5q29 0 45.5 22t18.5 58h92q0 -90 -36.5 -139t-102.5 -49z" glyph-name="approxequal.pnum" horiz-adv-x="596"/><glyph d="M411 262q-40 0 -78 22t-70 44.5t-58 22.5q-28 0 -44.5 -21.5t-18.5 -58.5h-92q0 90 36.5 139.5t101.5 49.5q39 0 76.5 -22.5t70 -45t59.5 -22.5q29 0 45.5 22t18.5 58h92q0 -90 -36.5 -139t-102.5 -49z" glyph-name="asciitilde.pnum" horiz-adv-x="599"/><glyph d="M431 191v223h-393v91h500v-314h-107z" glyph-name="logicalnot.pnum" horiz-adv-x="605"/><glyph d="M232 33v204h-197v91h197v205h106v-205h197v-91h-197v-204h-106z" glyph-name="plus.oldstyle" horiz-adv-x="569"/><glyph d="M66 237v91h500v-91h-500z" glyph-name="minus.oldstyle" horiz-adv-x="633"/><glyph d="M467 33l-186 185l-185 -185l-65 63l186 187l-186 185l65 65l185 -186l186 186l64 -65l-186 -186l186 -186z" glyph-name="multiply.oldstyle" horiz-adv-x="562"/><glyph d="M35 237v91h500v-91h-500zM285 402q-27 0 -46 18.5t-19 46.5t19 47t46 19q28 0 46.5 -19t18.5 -47t-18.5 -46.5t-46.5 -18.5zM285 33q-27 0 -46 18.5t-19 46.5t19 46.5t46 18.5q28 0 46.5 -18.5t18.5 -46.5t-18.5 -46.5t-46.5 -18.5z" glyph-name="divide.oldstyle" horiz-adv-x="569"/><glyph d="M49 349v91h500v-91h-500zM49 126v91h500v-91h-500z" glyph-name="equal.oldstyle" horiz-adv-x="597"/><glyph d="M128 33l40 93h-124v91h163l56 132h-219v91h258l40 93h109l-39 -93h132v-91h-171l-56 -132h227v-91h-266l-39 -93h-111z" glyph-name="notequal.oldstyle" horiz-adv-x="588"/><glyph d="M41 33v97l377 153l-377 153v97l500 -205v-91z" glyph-name="greater.oldstyle" horiz-adv-x="576"/><glyph d="M535 33l-500 204v91l500 205v-97l-377 -153l377 -153v-97z" glyph-name="less.oldstyle" horiz-adv-x="576"/><glyph d="M48 158v85l384 102l-384 103v85l500 -148v-79zM48 33v80h500v-80h-500z" glyph-name="greaterequal.oldstyle" horiz-adv-x="588"/><glyph d="M541 158l-500 148v79l500 148v-85l-384 -103l384 -102v-85zM41 33v80h500v-80h-500z" glyph-name="lessequal.oldstyle" horiz-adv-x="589"/><glyph d="M42 305v91h197v137h106v-137h197v-91h-197v-138h-106v138h-197zM42 33v91h500v-91h-500z" glyph-name="plusminus.oldstyle" horiz-adv-x="584"/><glyph d="M409 62q-40 0 -78 22.5t-70 45t-58 22.5q-28 0 -44.5 -22t-18.5 -58h-92q0 90 36.5 139t101.5 49q39 0 76.5 -22.5t70 -45t59.5 -22.5q29 0 45.5 22t18.5 58h92q0 -90 -36.5 -139t-102.5 -49zM409 300q-40 0 -78 22.5t-70 45t-58 22.5q-28 0 -44.5 -22t-18.5 -58h-92 q0 90 36.5 139t101.5 49q39 0 76.5 -22.5t70 -45t59.5 -22.5q29 0 45.5 22t18.5 58h92q0 -90 -36.5 -139t-102.5 -49z" glyph-name="approxequal.oldstyle" horiz-adv-x="596"/><glyph d="M411 197q-32 0 -63 14t-51.5 30.5t-45.5 30.5t-46 14q-28 0 -44.5 -21.5t-18.5 -58.5h-92q0 90 36.5 139.5t101.5 49.5q39 0 76.5 -22.5t70 -45t59.5 -22.5q29 0 45.5 22t18.5 58h92q0 -90 -36.5 -139t-102.5 -49z" glyph-name="asciitilde.oldstyle" horiz-adv-x="599"/><glyph d="M431 126v223h-393v91h500v-314h-107z" glyph-name="logicalnot.oldstyle" horiz-adv-x="605"/><glyph d="M450 -13q-154 0 -255.5 104.5t-101.5 253.5t101.5 253.5t255.5 104.5t255.5 -104.5t101.5 -253.5t-101.5 -253.5t-255.5 -104.5zM449 18q140 0 231.5 96t91.5 231t-91.5 231t-231.5 96q-139 0 -230 -96t-91 -231t91 -231t230 -96zM270 323l-24 23l204 203l203 -203 l-24 -23l-161 160v-342h-37v343z" glyph-name="arrowup.ss14"/><glyph d="M450 -13q-154 0 -255.5 104.5t-101.5 253.5t101.5 253.5t255.5 104.5t255.5 -104.5t101.5 -253.5t-101.5 -253.5t-255.5 -104.5zM449 18q140 0 231.5 96t91.5 231t-91.5 231t-231.5 96q-139 0 -230 -96t-91 -231t91 -231t230 -96zM307 457v33l287 -1v-287l-33 1l-1 226 l-241 -241l-27 26l243 243h-228z" glyph-name="uni2197.ss14"/><glyph d="M450 -13q-154 0 -255.5 104.5t-101.5 253.5t101.5 253.5t255.5 104.5t255.5 -104.5t101.5 -253.5t-101.5 -253.5t-255.5 -104.5zM449 18q140 0 231.5 96t91.5 231t-91.5 231t-231.5 96q-139 0 -230 -96t-91 -231t91 -231t230 -96zM428 525l23 24l203 -204l-203 -203 l-23 24l160 161h-342v37h343z" glyph-name="arrowright.ss14"/><glyph d="M450 -13q-154 0 -255.5 104.5t-101.5 253.5t101.5 253.5t255.5 104.5t255.5 -104.5t101.5 -253.5t-101.5 -253.5t-255.5 -104.5zM449 18q140 0 231.5 96t91.5 231t-91.5 231t-231.5 96q-139 0 -230 -96t-91 -231t91 -231t230 -96zM562 488h33l-1 -287h-287l1 33l226 1 l-241 241l26 27l243 -243v228z" glyph-name="uni2198.ss14"/><glyph d="M450 -13q-154 0 -255.5 104.5t-101.5 253.5t101.5 253.5t255.5 104.5t255.5 -104.5t101.5 -253.5t-101.5 -253.5t-255.5 -104.5zM449 18q140 0 231.5 96t91.5 231t-91.5 231t-231.5 96q-139 0 -230 -96t-91 -231t91 -231t230 -96zM630 367l24 -23l-204 -203l-203 203 l24 23l161 -160v342h37v-343z" glyph-name="arrowdown.ss14"/><glyph d="M450 -13q-154 0 -255.5 104.5t-101.5 253.5t101.5 253.5t255.5 104.5t255.5 -104.5t101.5 -253.5t-101.5 -253.5t-255.5 -104.5zM449 18q140 0 231.5 96t91.5 231t-91.5 231t-231.5 96q-139 0 -230 -96t-91 -231t91 -231t230 -96zM593 233v-33l-287 1v287l33 -1l1 -226 l241 241l27 -26l-243 -243h228z" glyph-name="uni2199.ss14"/><glyph d="M450 -13q-154 0 -255.5 104.5t-101.5 253.5t101.5 253.5t255.5 104.5t255.5 -104.5t101.5 -253.5t-101.5 -253.5t-255.5 -104.5zM449 18q140 0 231.5 96t91.5 231t-91.5 231t-231.5 96q-139 0 -230 -96t-91 -231t91 -231t230 -96zM472 165l-23 -24l-203 204l203 203 l23 -24l-160 -161h342v-37h-343z" glyph-name="arrowleft.ss14"/><glyph d="M450 -13q-154 0 -255.5 104.5t-101.5 253.5t101.5 253.5t255.5 104.5t255.5 -104.5t101.5 -253.5t-101.5 -253.5t-255.5 -104.5zM449 18q140 0 231.5 96t91.5 231t-91.5 231t-231.5 96q-139 0 -230 -96t-91 -231t91 -231t230 -96zM338 202h-33l1 287h287l-1 -33l-226 -1 l241 -241l-26 -27l-243 243v-228z" glyph-name="uni2196.ss14"/><glyph d="M450 -13q154 0 255.5 104.5t101.5 253.5t-101.5 253.5t-255.5 104.5t-255.5 -104.5t-101.5 -253.5t101.5 -253.5t255.5 -104.5zM270 323l-24 23l204 203l203 -203l-24 -23l-161 160v-342h-37v343zM431 484v27h9l-3 3h24l-3 -3h10v-28l-19 19z" glyph-name="arrowup.ss15"/><glyph d="M450 -13q154 0 255.5 104.5t101.5 253.5t-101.5 253.5t-255.5 104.5t-255.5 -104.5t-101.5 -253.5t101.5 -253.5t255.5 -104.5zM307 457v33l287 -1v-287l-33 1l-1 226l-241 -241l-27 26l243 243h-228zM535 457l19 19l6 -6v3l17 -16h-5l8 -8l-20 -20v28h-25z" glyph-name="uni2197.ss15"/><glyph d="M450 -13q154 0 255.5 104.5t101.5 253.5t-101.5 253.5t-255.5 104.5t-255.5 -104.5t-101.5 -253.5t101.5 -253.5t255.5 -104.5zM428 525l23 24l203 -204l-203 -203l-23 24l160 161h-342v37h343zM588 327l19 19l-18 18h27v-9l3 3v-24l-3 3v-10h-28z" glyph-name="arrowright.ss15"/><glyph d="M450 -13q154 0 255.5 104.5t101.5 253.5t-101.5 253.5t-255.5 104.5t-255.5 -104.5t-101.5 -253.5t101.5 -253.5t255.5 -104.5zM562 488h33l-1 -287h-287l1 33l226 1l-241 241l26 27l243 -243v228zM534 235h28v25l19 -19l-6 -6h3l-16 -17v5l-8 -8z" glyph-name="uni2198.ss15"/><glyph d="M450 -13q154 0 255.5 104.5t101.5 253.5t-101.5 253.5t-255.5 104.5t-255.5 -104.5t-101.5 -253.5t101.5 -253.5t255.5 -104.5zM630 367l24 -23l-204 -203l-203 203l24 23l161 -160v342h37v-343zM432 179v28l19 -19l18 18v-27h-9l3 -3h-24l3 3h-10z" glyph-name="arrowdown.ss15"/><glyph d="M450 -13q154 0 255.5 104.5t101.5 253.5t-101.5 253.5t-255.5 104.5t-255.5 -104.5t-101.5 -253.5t101.5 -253.5t255.5 -104.5zM593 233v-33l-287 1v287l33 -1l1 -226l241 241l27 -26l-243 -243h228zM320 241l20 20v-28h25l-19 -19l-6 6v-3l-17 16h5z" glyph-name="uni2199.ss15"/><glyph d="M450 -13q154 0 255.5 104.5t101.5 253.5t-101.5 253.5t-255.5 104.5t-255.5 -104.5t-101.5 -253.5t101.5 -253.5t255.5 -104.5zM472 165l-23 -24l-203 204l203 203l23 -24l-160 -161h342v-37h-343zM281 332v24l3 -3v10h28l-19 -19l18 -18h-27v9z" glyph-name="arrowleft.ss15"/><glyph d="M450 -13q154 0 255.5 104.5t101.5 253.5t-101.5 253.5t-255.5 104.5t-255.5 -104.5t-101.5 -253.5t101.5 -253.5t255.5 -104.5zM338 202h-33l1 287h287l-1 -33l-226 -1l241 -241l-26 -27l-243 243v-228zM319 449l6 6h-3l16 17v-5l8 8l20 -20h-28v-25z" glyph-name="uni2196.ss15"/><glyph d="M105 0v690h690v-690h-690zM141 32h618v626h-618v-626zM270 323l-24 23l204 203l203 -203l-24 -23l-161 160v-342h-37v343z" glyph-name="arrowup.ss16"/><glyph d="M105 0v690h690v-690h-690zM141 32h618v626h-618v-626zM307 457v33l287 -1v-287l-33 1l-1 226l-241 -241l-27 26l243 243h-228z" glyph-name="uni2197.ss16"/><glyph d="M105 0v690h690v-690h-690zM141 32h618v626h-618v-626zM428 525l23 24l203 -204l-203 -203l-23 24l160 161h-342v37h343z" glyph-name="arrowright.ss16"/><glyph d="M105 0v690h690v-690h-690zM141 32h618v626h-618v-626zM562 488h33l-1 -287h-287l1 33l226 1l-241 241l26 27l243 -243v228z" glyph-name="uni2198.ss16"/><glyph d="M105 0v690h690v-690h-690zM141 32h618v626h-618v-626zM630 367l24 -23l-204 -203l-203 203l24 23l161 -160v342h37v-343z" glyph-name="arrowdown.ss16"/><glyph d="M105 0v690h690v-690h-690zM141 32h618v626h-618v-626zM593 233v-33l-287 1v287l33 -1l1 -226l241 241l27 -26l-243 -243h228z" glyph-name="uni2199.ss16"/><glyph d="M105 0v690h690v-690h-690zM141 32h618v626h-618v-626zM472 165l-23 -24l-203 204l203 203l23 -24l-160 -161h342v-37h-343z" glyph-name="arrowleft.ss16"/><glyph d="M105 0v690h690v-690h-690zM141 32h618v626h-618v-626zM338 202h-33l1 287h287l-1 -33l-226 -1l241 -241l-26 -27l-243 243v-228z" glyph-name="uni2196.ss16"/><glyph d="M105 0h690v690h-690v-690zM270 323l-24 23l204 203l203 -203l-24 -23l-161 160v-342h-37v343zM431 484v27h9l-3 3h24l-3 -3h10v-28l-19 19z" glyph-name="arrowup.ss17"/><glyph d="M105 0h690v690h-690v-690zM307 457v33l287 -1v-287l-33 1l-1 226l-241 -241l-27 26l243 243h-228zM535 457l19 19l6 -6v3l17 -16h-5l8 -8l-20 -20v28h-25z" glyph-name="uni2197.ss17"/><glyph d="M105 0h690v690h-690v-690zM428 525l23 24l203 -204l-203 -203l-23 24l160 161h-342v37h343zM588 327l19 19l-18 18h27v-9l3 3v-24l-3 3v-10h-28z" glyph-name="arrowright.ss17"/><glyph d="M105 0h690v690h-690v-690zM562 488h33l-1 -287h-287l1 33l226 1l-241 241l26 27l243 -243v228zM534 235h28v25l19 -19l-6 -6h3l-16 -17v5l-8 -8z" glyph-name="uni2198.ss17"/><glyph d="M105 0h690v690h-690v-690zM630 367l24 -23l-204 -203l-203 203l24 23l161 -160v342h37v-343zM432 179v28l19 -19l18 18v-27h-9l3 -3h-24l3 3h-10z" glyph-name="arrowdown.ss17"/><glyph d="M105 0h690v690h-690v-690zM593 233v-33l-287 1v287l33 -1l1 -226l241 241l27 -26l-243 -243h228zM320 241l20 20v-28h25l-19 -19l-6 6v-3l-17 16h5z" glyph-name="uni2199.ss17"/><glyph d="M105 0h690v690h-690v-690zM472 165l-23 -24l-203 204l203 203l23 -24l-160 -161h342v-37h-343zM281 332v24l3 -3v10h28l-19 -19l18 -18h-27v9z" glyph-name="arrowleft.ss17"/><glyph d="M105 0h690v690h-690v-690zM338 202h-33l1 287h287l-1 -33l-226 -1l241 -241l-26 -27l-243 243v-228zM319 449l6 6h-3l16 17v-5l8 8l20 -20h-28v-25z" glyph-name="uni2196.ss17"/><glyph d="M159 541q-48 0 -80.5 30.5t-32.5 76.5t32.5 76.5t80.5 30.5q37 0 66 -19l106 60l43 -81l-104 -52l1 -15q0 -46 -32 -76.5t-80 -30.5zM159 598q21 0 34.5 14t13.5 36t-13.5 35t-34.5 13q-22 0 -35 -13t-13 -35t13 -36t35 -14z" glyph-name="uni030A_acutecomb.ccmp" horiz-adv-x="0"/><glyph d="M100 194v99h456l-12 -99h-444z" glyph-name="uni0335.case" horiz-adv-x="0"/><glyph d="M184 -92l-84 61l540 770l84 -61z" glyph-name="uni0338.case" horiz-adv-x="0"/></font>
</defs>
</svg>
